<?xml version="1.0" standalone="no"?>
<!DOCTYPE svg PUBLIC "-//W3C//DTD SVG 1.1//EN" "http://www.w3.org/Graphics/SVG/1.1/DTD/svg11.dtd" >
<svg xmlns="http://www.w3.org/2000/svg">
<metadata>
This is a custom SVG webfont generated by Font Squirrel.
Copyright   : Copyright  2009 ParaType Ltd All rights reserved
Designer    : AKorolkova OUmpeleva VYefimov
Foundry     : ParaType Ltd
Foundry URL : httpwwwparatypecom
</metadata>
<defs>
<font id="PTSansNarrowRegular" horiz-adv-x="921" >
<font-face units-per-em="2048" ascent="1638" descent="-410" />
<missing-glyph horiz-adv-x="434" />
<glyph unicode=" "  horiz-adv-x="434" />
<glyph unicode="&#x09;" horiz-adv-x="434" />
<glyph unicode="&#xa0;" horiz-adv-x="434" />
<glyph unicode="!" horiz-adv-x="505" d="M180 92q0 57 28 86t75 29t74.5 -28.5t27.5 -86.5q0 -59 -27.5 -88t-74.5 -29t-75 29t-28 88zM207 723v711h153v-711l-30 -361h-92z" />
<glyph unicode="&#x22;" horiz-adv-x="585" d="M362 1038v396h142l-53 -396h-89zM147 1038v396h142l-53 -396h-89z" />
<glyph unicode="#" d="M49 461l27 123h125l55 286h-125l27 123h123l61 322h125l-61 -322h167l64 322h125l-62 -322h125l-28 -123h-121l-55 -286h122l-28 -123h-117l-66 -342h-126l65 342h-168l-65 -342h-125l65 342h-129zM326 584h170l55 286h-170z" />
<glyph unicode="$" d="M129 37l47 139q33 -23 90.5 -43t134.5 -24v581q-51 33 -99 70t-86 86t-61.5 113.5t-23.5 152.5q0 135 68.5 226.5t201.5 113.5v186h125v-182q80 -4 133.5 -15t100.5 -34l-47 -133q-35 18 -78 31.5t-109 17.5v-528q51 -35 102.5 -74t91.5 -89t64.5 -114.5t24.5 -150.5 q0 -147 -72.5 -250t-210.5 -131v-191h-125v180q-90 4 -158.5 18.5t-113.5 43.5zM285 1118q0 -90 42 -149.5t107 -108.5v459q-84 -16 -116.5 -75.5t-32.5 -125.5zM494 117q74 16 117.5 76.5t43.5 162.5q0 98 -47 160t-114 111v-510z" />
<glyph unicode="%" horiz-adv-x="1304" d="M113 1110q0 94 19.5 160.5t55 108.5t83.5 60.5t104 18.5q55 0 103 -17.5t84 -57.5t55.5 -107.5t19.5 -165.5t-19.5 -165.5t-55.5 -107.5t-84 -57.5t-103 -17.5t-103.5 17.5t-84 57.5t-55 107.5t-19.5 165.5zM246 1110q0 -133 35.5 -184.5t93.5 -51.5q29 0 52.5 10.5 t39.5 36t25.5 71.5t9.5 118q0 70 -9.5 116t-25.5 72.5t-40 37t-52 10.5q-31 0 -54.5 -10.5t-40 -37t-25.5 -72.5t-9 -116zM715 350q0 94 19.5 160.5t55 108.5t83.5 60.5t104 18.5q55 0 103 -17.5t84 -57.5t55.5 -107.5t19.5 -165.5t-19.5 -165.5t-55.5 -107.5t-84 -57.5 t-103 -17.5t-103.5 17.5t-84 57.5t-55 107.5t-19.5 165.5zM848 350q0 -133 35.5 -184.5t93.5 -51.5q29 0 52.5 10.5t39.5 36t25.5 71.5t9.5 118q0 70 -9.5 116t-25.5 72.5t-40 37t-52 10.5q-31 0 -54.5 -10.5t-40 -37t-25.5 -72.5t-9 -116zM188 37l873 1423l96 -61 l-873 -1424z" />
<glyph unicode="&#x26;" horiz-adv-x="1343" d="M186 385q0 82 25 154.5t64.5 135t91 114t104.5 92.5q-41 74 -71.5 151.5t-30.5 163.5q0 49 13 96t44 84t78 59.5t114 22.5q70 0 118 -20.5t77 -53t42 -74.5t13 -87q0 -88 -55 -180.5t-168 -180.5q27 -57 60.5 -119.5t71.5 -125t78 -123t79 -111.5q37 51 69.5 137 t53.5 166l119 -47q-10 -35 -29 -84t-40.5 -99t-45 -96.5t-43.5 -76.5q68 -80 114 -124t93 -77l-92 -107q-92 53 -201 191q-29 -37 -65 -71t-80 -60.5t-98 -43t-118 -16.5q-80 0 -150.5 26t-122.5 77t-82 128t-30 179zM334 387q0 -68 20.5 -120t56 -87t82 -53t97.5 -18 q39 0 78 14t72.5 36.5t60 50.5t45.5 56q-47 59 -92 127t-86 135.5t-75 131t-56 116.5q-43 -41 -80 -82t-64.5 -87t-43 -100t-15.5 -120zM516 1196q0 -61 19.5 -120.5t50.5 -121.5q84 72 115.5 131.5t31.5 106.5q0 57 -23.5 99t-84.5 42q-57 0 -83 -39t-26 -98z" />
<glyph unicode="'" horiz-adv-x="370" d="M147 1038v396h142l-53 -396h-89z" />
<glyph unicode="(" horiz-adv-x="477" d="M98 498q0 113 14.5 237.5t47.5 250.5t87 247t132 225l92 -55q-66 -104 -109 -219t-68.5 -232.5t-36.5 -233.5t-11 -220q0 -98 12 -216t40 -237t71 -231.5t102 -202.5l-96 -62q-78 98 -130 216t-85 242t-47.5 250t-14.5 241z" />
<glyph unicode=")" horiz-adv-x="477" d="M98 -389q59 90 102.5 202.5t71 231.5t40 236.5t12.5 216.5q0 104 -11.5 220t-37 233.5t-69.5 232t-108 219.5l92 55q78 -104 132.5 -225t87 -247t47 -251t14.5 -237q0 -115 -14.5 -241t-47 -250t-86 -241.5t-128.5 -216.5z" />
<glyph unicode="*" horiz-adv-x="595" d="M61 1137v104h91l102 -22l-78 84l-45 83l90 54l41 -78l31 -107l33 107l43 76l90 -49l-47 -82l-78 -88l112 22h86v-104h-79l-111 22l80 -90l41 -72l-88 -51l-43 78l-39 113l-31 -109l-43 -76l-90 52l47 77l72 78l-96 -22h-91z" />
<glyph unicode="+" horiz-adv-x="849" d="M72 627v137h282v319h140v-319h282v-137h-282v-320h-140v320h-282z" />
<glyph unicode="," horiz-adv-x="380" d="M63 -231q27 14 50.5 37.5t39 52t23.5 60.5t8 63q-41 -12 -75.5 16.5t-34.5 89.5q0 51 29.5 82t76.5 31q53 0 87 -43t34 -135q0 -68 -17.5 -122.5t-45 -95.5t-60.5 -67.5t-63 -38.5z" />
<glyph unicode="-" horiz-adv-x="595" d="M96 514v141h404v-141h-404z" />
<glyph unicode="." horiz-adv-x="364" d="M80 92q0 57 27.5 86t74.5 29t75 -28.5t28 -86.5q0 -59 -28 -88t-75 -29t-74.5 29t-27.5 88z" />
<glyph unicode="/" horiz-adv-x="604" d="M-57 -244l602 1702l114 -45l-598 -1700z" />
<glyph unicode="0" d="M78 717q0 197 24.5 338t73.5 230t121 131t164 42q98 0 171 -42t120 -131t69.5 -230.5t22.5 -337.5q0 -199 -24.5 -339t-74 -229.5t-120 -131.5t-162.5 -42q-100 0 -173 43t-120 133.5t-69.5 230.5t-22.5 335zM231 717q0 -293 55.5 -450.5t178.5 -157.5q119 0 173 144 t54 464q0 291 -52 449.5t-179 158.5q-119 0 -174.5 -143t-55.5 -465z" />
<glyph unicode="1" d="M123 1110l373 348h75v-1321h224v-137h-602v137h231v998l18 120l-69 -98l-172 -139z" />
<glyph unicode="2" d="M113 0v66q39 47 90 118.5t105 156.5t106.5 180t93.5 193.5t66.5 195t25.5 184.5q0 104 -48 165.5t-140 61.5q-59 0 -115.5 -21.5t-97.5 -54.5l-58 109q55 49 135 76.5t168 27.5q152 0 231 -93t79 -245q0 -113 -34 -235.5t-86 -242.5t-116.5 -230.5t-126.5 -196.5l-82 -90 v-6l109 18h358v-137h-663z" />
<glyph unicode="3" d="M150 23l40 133q39 -23 89.5 -35t115.5 -12q55 0 101.5 22.5t80 63.5t52 97t18.5 124q0 152 -66.5 221.5t-185.5 69.5h-123v59l238 459l80 86l-113 -15h-321v138h594v-60l-263 -489l-61 -60v-4l59 13q63 0 121 -26t98.5 -76t65.5 -123.5t25 -172.5q0 -111 -32 -196.5 t-86 -144t-127 -89.5t-155 -31q-72 0 -135 12.5t-110 35.5z" />
<glyph unicode="4" d="M41 440v70l543 946h108v-883h191v-133h-191v-440h-147v440h-504zM199 559l112 14h234v459l24 176h-6l-61 -157l-226 -392z" />
<glyph unicode="5" d="M131 14l37 131q37 -18 82 -25t104 -7q117 0 189.5 85t74.5 238q-2 158 -74.5 233.5t-201.5 75.5l-135 -10v699h524v-144h-389v-418l70 7q164 -2 258 -113t96 -317q-2 -115 -34 -203t-87 -148.5t-129 -91.5t-158 -31q-141 0 -227 39z" />
<glyph unicode="6" d="M104 481q0 217 44.5 387t120 293t178 198t219.5 99l41 -119q-92 -25 -168 -82t-133.5 -139t-95.5 -184.5t-52 -218.5q27 55 89.5 96t154.5 41q147 0 236 -104.5t91 -315.5q-2 -102 -25.5 -187t-69.5 -144.5t-112.5 -92.5t-150.5 -33q-172 0 -269.5 125t-97.5 381z M248 506.5q0 -25.5 2 -47.5q-2 -68 11 -130.5t41 -111.5t70 -78.5t99 -29.5q92 0 150.5 81.5t58.5 227.5q0 301 -217 301q-78 0 -133.5 -49t-77.5 -111q-4 -27 -4 -52.5z" />
<glyph unicode="7" d="M115 1292v142h698v-56l-471 -1378h-147l413 1210l74 101l-98 -19h-469z" />
<glyph unicode="8" d="M119 332q0 137 56 233.5t167 173.5q-41 31 -77 65t-62.5 77t-42 96t-15.5 123q0 166 87 262t239 96q141 0 224 -87t83 -238q0 -117 -45 -207t-141 -176q43 -31 82 -68t68.5 -83t46 -104.5t16.5 -134.5q0 -174 -93.5 -279.5t-258.5 -105.5q-80 0 -141.5 27t-104.5 74 t-65.5 112.5t-22.5 143.5zM260 354q0 -104 51 -174.5t150 -70.5q80 0 138 58t58 185q0 63 -18 112.5t-49 87.5t-70 69.5t-82 60.5q-94 -70 -136 -156t-42 -172zM289 1104q0 -55 16.5 -99t45 -80t65.5 -66t78 -56q70 70 106.5 140.5t36.5 156.5q0 113 -50 169t-118 56 q-43 0 -77 -17.5t-56.5 -48t-34.5 -70.5t-12 -85z" />
<glyph unicode="9" d="M94 999q0 213 91 336t272 123q172 0 267 -127t95 -389q0 -231 -43 -402t-118.5 -289t-178 -185.5t-221.5 -90.5l-39 121q197 51 305.5 206t137.5 388q-43 -59 -95.5 -83.5t-138.5 -24.5q-66 0 -126 25.5t-106 77.5t-74 131t-28 183zM244 1016q0 -145 59 -223t158 -78 q78 0 132 33.5t79 87.5q4 27 4 51v47q0 78 -13.5 148.5t-41 125t-70.5 86t-102 31.5q-96 0 -150.5 -84t-54.5 -225z" />
<glyph unicode=":" horiz-adv-x="421" d="M156 917q0 57 27.5 86t74.5 29t75 -28.5t28 -86.5q0 -59 -28 -88t-75 -29t-74.5 29t-27.5 88zM156 92q0 57 27.5 86t74.5 29t75 -28.5t28 -86.5q0 -59 -28 -88t-75 -29t-74.5 29t-27.5 88z" />
<glyph unicode=";" horiz-adv-x="442" d="M143 -231q27 14 50.5 37.5t39 52t23.5 60.5t8 63q-41 -12 -75.5 16.5t-34.5 89.5q0 51 29.5 82t76.5 31q53 0 87 -43t34 -135q0 -68 -17.5 -122.5t-45 -95.5t-60.5 -67.5t-63 -38.5zM174 917q0 57 27.5 86t74.5 29t75 -28.5t28 -86.5q0 -59 -28 -88t-75 -29t-74.5 29 t-27.5 88z" />
<glyph unicode="&#x3c;" horiz-adv-x="849" d="M74 625v59l614 457l80 -111l-391 -297l-152 -78l150 -65l401 -295l-78 -111z" />
<glyph unicode="=" horiz-adv-x="849" d="M72 797v137h704v-137h-704zM72 459v137h704v-137h-704z" />
<glyph unicode="&#x3e;" horiz-adv-x="849" d="M74 1032l82 109l620 -436v-60l-610 -457l-84 109l393 297l150 78l-148 65z" />
<glyph unicode="?" horiz-adv-x="733" d="M66 1364q61 41 133.5 67.5t177.5 26.5q147 0 223 -86t76 -235q0 -88 -22.5 -158t-55.5 -128t-72 -111.5t-72.5 -110t-56 -121t-22.5 -146.5h-123q-6 90 11.5 160t48 128.5t66.5 109.5t68.5 105.5t54 114.5t21.5 136q0 94 -41 151.5t-139 57.5q-59 0 -116.5 -21.5 t-102.5 -54.5zM221 92q0 57 27.5 86t75.5 29q47 0 74.5 -28.5t27.5 -86.5q0 -59 -27.5 -88t-74.5 -29t-75 29t-28 88z" />
<glyph unicode="@" horiz-adv-x="1755" d="M139 483q0 211 62.5 378t168 281.5t247 176t298.5 61.5q152 0 280 -45t222 -135t146.5 -223t52.5 -309q0 -141 -37 -262t-99.5 -209t-145.5 -138.5t-177 -50.5q-39 0 -70.5 10.5t-51 35t-28 65.5t0.5 100h-9q-23 -41 -53.5 -79t-66 -67.5t-77.5 -47t-87 -17.5 q-86 0 -146.5 77t-60.5 222q0 152 33.5 283t92 227t136.5 150.5t166 54.5q59 0 97 -20.5t73 -55.5l51 60h68l-84 -596q-18 -137 -11 -204t60 -67t106.5 35t95.5 102.5t67.5 166t25.5 225.5q0 145 -42 254.5t-117 183.5t-181.5 111.5t-235.5 37.5q-133 0 -249.5 -54 t-202.5 -154.5t-136.5 -239.5t-50.5 -311q0 -178 46 -309.5t130 -219.5t199 -131t254 -43q49 0 113.5 12.5t111.5 36.5l37 -114q-70 -33 -138.5 -46.5t-143.5 -13.5q-150 0 -284 47t-235.5 146.5t-161 254t-59.5 367.5zM649 342q0 -92 28 -146.5t93 -54.5q31 0 63.5 22.5 t64.5 58.5t60.5 81t49.5 90l55 426q-27 37 -54.5 53.5t-68.5 16.5q-61 0 -114.5 -46t-92.5 -123t-61.5 -175.5t-22.5 -202.5z" />
<glyph unicode="A" horiz-adv-x="968" d="M10 0l432 1456h84l432 -1456h-159l-117 401h-406l-114 -401h-152zM317 539h328l-125 442l-39 215h-4l-39 -219z" />
<glyph unicode="B" horiz-adv-x="964" d="M131 10v1411q61 12 144 20.5t180 8.5q70 0 139.5 -13.5t124.5 -50t89 -103t34 -175.5q0 -53 -12.5 -106.5t-39 -100.5t-66.5 -84t-97 -55v-8q49 -10 94 -34t80 -66t55.5 -102t20.5 -144q0 -111 -35 -192t-95.5 -132t-139.5 -75.5t-167 -24.5h-66q-38 0 -81 3t-85 8 t-77 15zM285 139q12 -4 31.5 -6t43 -4t48 -3t45.5 -1q55 0 102 17.5t83 52t56.5 85t20.5 117.5q0 84 -25.5 136.5t-66.5 81t-93.5 39t-107.5 10.5h-137v-525zM285 797h84q29 0 65.5 2t61.5 6q76 31 130 99.5t54 168.5q0 68 -18.5 114t-50 72.5t-74.5 38t-91 11.5 q-53 0 -96 -3t-65 -8v-501z" />
<glyph unicode="C" horiz-adv-x="937" d="M88 717q0 205 42 346t111.5 229t161 127t187.5 39q98 0 162.5 -14t111.5 -35l-37 -139q-41 23 -96 35t-127 12t-135 -32t-112.5 -102.5t-78 -185t-28.5 -280.5q0 -299 102.5 -449.5t272.5 -150.5q70 0 125 19.5t94 45.5l37 -127q-51 -43 -129 -61.5t-164 -18.5 q-109 0 -201 41t-158.5 130.5t-103.5 230.5t-37 340z" />
<glyph unicode="D" horiz-adv-x="1075" d="M131 -2v1436q33 6 73 9t81 4t81 2t74 1q150 0 254.5 -51t170 -146.5t94 -228.5t28.5 -297q0 -147 -27.5 -282.5t-93 -238t-173 -163.5t-269.5 -61q-27 0 -68 1t-85 4t-82 5t-58 6zM285 131q8 -2 29.5 -3t45 -2t45 -2t31.5 -1q113 0 188.5 49t119.5 132t62.5 192.5 t18.5 232.5q0 109 -16 213.5t-58 185t-115 131t-187 50.5h-45q-24 0 -46 -2t-41.5 -4.5t-31.5 -4.5v-1167z" />
<glyph unicode="E" horiz-adv-x="878" d="M131 0v1434h637v-142h-483v-485h444v-141h-444v-525h493v-141h-647z" />
<glyph unicode="F" horiz-adv-x="845" d="M131 0v1434h637v-142h-483v-506h450v-141h-450v-645h-154z" />
<glyph unicode="G" horiz-adv-x="1007" d="M88 717q0 201 43 341t115.5 229t166 130t191.5 41t165 -13t114 -36l-37 -139q-41 23 -97.5 35t-130.5 12q-72 0 -137 -31t-117.5 -101.5t-83 -185t-30.5 -282.5q0 -307 97 -453.5t267 -146.5q106 0 177 51v418l-265 39v90h396v-631q-57 -53 -147.5 -81t-182.5 -28 q-115 0 -208 43t-158.5 134.5t-101.5 230.5t-36 334z" />
<glyph unicode="H" horiz-adv-x="1097" d="M131 0v1434h154v-631h528v631h154v-1434h-154v662h-528v-662h-154z" />
<glyph unicode="I" horiz-adv-x="477" d="M162 0v1434h153v-1434h-153z" />
<glyph unicode="J" horiz-adv-x="493" d="M-53 12l33 133q20 -12 45.5 -18t52.5 -6q37 0 59.5 16.5t34.5 46t15 71.5t3 95v1084h154v-1112q0 -168 -54 -255t-190 -87q-33 0 -78.5 8t-74.5 24z" />
<glyph unicode="K" horiz-adv-x="1009" d="M131 0v1434h154v-668l71 29l373 639h176l-375 -619l-71 -65l84 -82l415 -668h-194l-406 664h-73v-664h-154z" />
<glyph unicode="L" horiz-adv-x="849" d="M131 0v1434h154v-1293h536v-141h-690z" />
<glyph unicode="M" horiz-adv-x="1304" d="M131 0v1434h129l346 -705l51 -168h5l49 170l327 703h136v-1434h-154v942l18 217h-8l-65 -203l-289 -622h-51l-303 622l-64 203h-8l29 -217v-942h-148z" />
<glyph unicode="N" horiz-adv-x="1101" d="M131 0v1456h92l531 -930l84 -215h8l-23 215v908h148v-1457h-94l-527 932l-88 226h-6l23 -226v-909h-148z" />
<glyph unicode="O" horiz-adv-x="1124" d="M88 717q0 365 117 553t356 188q129 0 219 -52t146.5 -148.5t83 -233.5t26.5 -307q0 -365 -117.5 -553.5t-357.5 -188.5q-127 0 -217 52.5t-147.5 148.5t-83 233.5t-25.5 307.5zM250 717q0 -121 17.5 -229.5t54 -190.5t96 -131t143.5 -49q154 0 233.5 147.5t79.5 452.5 q0 119 -17 227.5t-54 191.5t-96.5 132t-145.5 49q-152 0 -231.5 -147.5t-79.5 -452.5z" />
<glyph unicode="P" horiz-adv-x="923" d="M131 0v1419q66 18 139.5 24.5t145.5 6.5q82 0 161.5 -18.5t144 -67.5t104.5 -135t40 -219q0 -129 -37.5 -219.5t-100 -146.5t-143.5 -81.5t-167 -25.5h-27q-18 0 -38.5 1t-40 3t-27.5 4v-545h-154zM285 686q8 -4 25.5 -5t36 -2t35.5 -1h26q57 0 110 14.5t94 52t67 102 t26 163.5q0 86 -24 143t-61.5 92t-89 49.5t-106.5 14.5q-41 0 -79 -3t-60 -10v-610z" />
<glyph unicode="Q" horiz-adv-x="1124" d="M88 717q0 365 117 553t356 188q129 0 219 -52t146.5 -148.5t83 -233.5t26.5 -307q0 -365 -117.5 -553.5t-357.5 -188.5q-127 0 -217 52.5t-147.5 148.5t-83 233.5t-25.5 307.5zM250 717q0 -121 17.5 -229.5t54 -190.5t96 -131t143.5 -49q154 0 233.5 147.5t79.5 452.5 q0 119 -17 227.5t-54 191.5t-96.5 132t-145.5 49q-152 0 -231.5 -147.5t-79.5 -452.5zM348 -102q45 12 90 12q68 0 136.5 -20.5t138 -45t144.5 -45t155 -20.5q74 0 147 20v-139q-41 -14 -79 -19.5t-76 -5.5q-82 0 -161 21.5t-152 46.5t-140.5 46.5t-128.5 21.5 q-37 0 -74 -13v140z" />
<glyph unicode="R" horiz-adv-x="983" d="M131 0v1419q68 16 148.5 23.5t148.5 7.5q80 0 151.5 -19.5t125 -65.5t85 -121t31.5 -187q0 -170 -70.5 -272.5t-187.5 -137.5l78 -76l283 -571h-179l-307 625l-153 30v-655h-154zM285 758h123q117 0 184 71.5t67 219.5q0 113 -56 186.5t-167 73.5q-41 0 -85 -3t-66 -10 v-538z" />
<glyph unicode="S" horiz-adv-x="876" d="M68 49l53 141q39 -27 109.5 -50t160.5 -23q115 0 186.5 56t71.5 177q0 80 -41 139.5t-102.5 109.5t-132 98t-132 106.5t-102.5 134.5t-41 182q0 172 103.5 255t269.5 83q102 0 182 -18.5t129 -46.5l-49 -136q-37 23 -105.5 41.5t-158.5 18.5q-111 0 -164 -54.5 t-53 -136.5q0 -72 41 -127t102.5 -104t132 -99.5t132 -111.5t102.5 -139t41 -185q0 -180 -106.5 -282.5t-301.5 -102.5q-123 0 -201.5 22.5t-125.5 51.5z" />
<glyph unicode="T" horiz-adv-x="915" d="M29 1292v142h858v-142h-352v-1292h-154v1292h-352z" />
<glyph unicode="U" horiz-adv-x="1067" d="M131 440v994h154v-914q0 -111 14 -186.5t47 -122.5t82 -67.5t121 -20.5q135 0 187 94t52 303v914h148v-961q0 -260 -101.5 -375.5t-287.5 -115.5q-217 0 -316.5 112.5t-99.5 345.5z" />
<glyph unicode="V" horiz-adv-x="948" d="M-4 1434h170l280 -981l37 -220h4l41 224l267 977h157l-434 -1457h-82z" />
<glyph unicode="W" horiz-adv-x="1376" d="M10 1434h166l197 -949l24 -239h4l25 243l229 945h88l230 -947l24 -241h2l29 243l182 945h154l-320 -1457h-94l-227 945l-29 219h-6l-29 -221l-227 -943h-96z" />
<glyph unicode="X" horiz-adv-x="1024" d="M39 0l377 729l-344 705h184l223 -486l41 -121l41 121l236 486h170l-357 -691l373 -743h-180l-248 514l-47 127l-43 -127l-254 -514h-172z" />
<glyph unicode="Y" horiz-adv-x="931" d="M10 1434h180l259 -625l26 -125h4l27 129l250 621h166l-377 -863v-571h-154v569z" />
<glyph unicode="Z" horiz-adv-x="899" d="M59 0v141l570 1069l67 82h-637v142h781v-142l-572 -1075l-65 -76h637v-141h-781z" />
<glyph unicode="[" horiz-adv-x="507" d="M131 -471v1905h320v-134h-172v-1638h172v-133h-320z" />
<glyph unicode="\" horiz-adv-x="647" d="M-57 1411l125 47l608 -1698l-123 -47z" />
<glyph unicode="]" horiz-adv-x="507" d="M59 -338h170v1638h-170v134h318v-1905h-318v133z" />
<glyph unicode="^" horiz-adv-x="843" d="M82 891l309 565h62l284 -565h-153l-127 276l-37 142l-49 -144l-148 -274h-141z" />
<glyph unicode="_" horiz-adv-x="684" d="M0 -287h684v-133h-684v133z" />
<glyph unicode="`" horiz-adv-x="522" d="M123 1432v43h170l106 -306h-84z" />
<glyph unicode="a" horiz-adv-x="819" d="M59 274q0 88 30 147.5t84 96.5t129 52.5t167 15.5h41q20 0 43 -2q6 63 6 112q0 117 -35 164t-127 47q-57 0 -124.5 -17.5t-112.5 -43.5l-49 117q59 37 144 57t179 20q86 0 138.5 -25.5t82 -69.5t38.5 -100.5t9 -117.5q0 -123 -5 -239.5t-5 -221.5q0 -78 5 -144.5 t20 -125.5h-113l-35 121h-8q-31 -53 -90 -92t-160 -39q-111 0 -181.5 76.5t-70.5 211.5zM213 291q0 -82 40 -127t103 -45q86 0 133.5 41t65.5 90v217q-20 2 -40.5 3t-41.5 1q-49 0 -96 -8t-84 -28.5t-58.5 -55.5t-21.5 -88z" />
<glyph unicode="b" horiz-adv-x="888" d="M121 53v1381h147v-488h6q84 102 224 103q158 0 236.5 -125t78.5 -396q0 -276 -105.5 -411t-297.5 -135q-94 0 -172 21t-117 50zM268 150q29 -16 71 -25.5t89 -9.5q106 0 168.5 101t62.5 312q0 88 -11 159t-34.5 122t-61.5 78.5t-91 27.5q-74 0 -122 -44t-71 -119v-602z " />
<glyph unicode="c" horiz-adv-x="729" d="M76 512q0 262 93 399.5t267 137.5q80 0 137.5 -14.5t98.5 -37.5l-41 -129q-82 47 -178 47q-111 0 -167.5 -97t-56.5 -306q0 -84 12.5 -157.5t41 -128t73.5 -86t113 -31.5q53 0 99 18t75 43l43 -119q-51 -39 -116.5 -57.5t-137.5 -18.5q-98 0 -165.5 38t-109.5 109 t-61.5 170t-19.5 220z" />
<glyph unicode="d" horiz-adv-x="886" d="M76 510q0 262 99 397t274 135q59 0 94 -7t75 -23v422h148v-1082q0 -104 2 -189t14 -167h-100l-33 123h-8q-29 -61 -90.5 -102.5t-147.5 -41.5q-166 0 -246.5 129.5t-80.5 405.5zM229 508q0 -90 11.5 -163t35 -126t61.5 -81.5t93 -28.5q147 0 188 174v579q-29 25 -64.5 36 t-94.5 11q-109 0 -169.5 -98t-60.5 -303z" />
<glyph unicode="e" horiz-adv-x="845" d="M76 512q0 262 96 399.5t272 137.5q57 0 113.5 -14.5t102 -57.5t73 -121t27.5 -203q0 -35 -3 -74.5t-7 -82.5h-521q0 -88 14.5 -160t45 -122t79 -77.5t119.5 -27.5q55 0 109.5 20.5t83.5 48.5l53 -108q-49 -45 -125 -70t-159 -25q-96 0 -167 38t-117 109t-67.5 169 t-21.5 221zM231 618h387q0 12 1 25q0 135 -44 201q-47 72 -129 71q-94 0 -149.5 -71.5t-65.5 -225.5z" />
<glyph unicode="f" horiz-adv-x="526" d="M33 891v133h125v57q0 193 55 279t188 86q53 0 96.5 -6t88.5 -27l-37 -127q-37 16 -68.5 21.5t-60.5 5.5q-41 0 -63.5 -16.5t-34 -51.5t-14.5 -89t-3 -132h213v-133h-213v-891h-147v891h-125z" />
<glyph unicode="g" horiz-adv-x="884" d="M76 508q0 264 101.5 399t299.5 135q96 0 166 -18t123 -43v-1028q0 -199 -88 -293t-256 -94q-102 0 -168 17.5t-107 39.5l43 127q41 -18 90.5 -34.5t120.5 -16.5q125 0 171 69.5t46 233.5v76h-6q-33 -47 -84 -74t-131 -27q-166 0 -243.5 128.5t-77.5 402.5zM229 510 q0 -86 10.5 -158.5t35 -127t62.5 -84t93 -29.5q78 0 123 41t65 122v603q-61 33 -157 32q-104 0 -168 -95t-64 -304z" />
<glyph unicode="h" horiz-adv-x="901" d="M121 0v1434h147v-506h6q41 53 101.5 87t150.5 34q68 0 118 -18.5t83 -63.5t49.5 -120t16.5 -185v-662h-148v623q0 143 -33.5 217.5t-134.5 74.5q-72 0 -130 -51t-79 -129v-735h-147z" />
<glyph unicode="i" horiz-adv-x="444" d="M119 1335q0 49 27.5 80t72.5 31t75 -30t30 -81q0 -49 -30 -76.5t-75 -27.5t-72.5 28.5t-27.5 75.5zM145 0v1024h148v-1024h-148z" />
<glyph unicode="j" horiz-adv-x="440" d="M8 -297q45 0 73 18.5t43 56.5t19 94t4 132v1020h148v-1079q0 -211 -68 -304q-54 -75 -163 -75q-26 0 -56 4v133zM119 1335q0 49 27.5 80t72.5 31t75 -30t30 -81q0 -49 -30 -76.5t-75 -27.5t-72.5 28.5t-27.5 75.5z" />
<glyph unicode="k" horiz-adv-x="794" d="M121 0v1434h147v-873l68 29l239 434h170l-241 -414l-72 -65l84 -80l264 -465h-178l-258 461h-76v-461h-147z" />
<glyph unicode="l" horiz-adv-x="477" d="M131 195v1239h148v-1190q0 -72 19 -102.5t54 -30.5q43 0 101 22l14 -119q-27 -16 -75 -26.5t-87 -10.5q-78 0 -126 48.5t-48 169.5z" />
<glyph unicode="m" horiz-adv-x="1333" d="M121 0v1024h104l27 -109h6q43 59 102.5 96.5t151.5 37.5q78 0 128 -34t79 -120q37 72 105.5 113t150.5 41q68 0 116 -17.5t77.5 -61.5t44 -117t14.5 -183v-670h-148v651q0 133 -25.5 198.5t-117.5 65.5q-78 0 -124 -48t-64 -130v-737h-148v608q0 82 -5 140.5t-21.5 95.5 t-45 54t-75.5 17q-70 0 -118 -54t-67 -124v-737h-147z" />
<glyph unicode="n" horiz-adv-x="899" d="M121 0v1024h106l27 -109h6q39 55 105.5 94.5t158.5 39.5q66 0 116 -18.5t84 -62.5t51.5 -118t17.5 -186v-664h-148v625q0 154 -36 222t-128 68q-82 0 -135 -49t-78 -121v-745h-147z" />
<glyph unicode="o" horiz-adv-x="884" d="M76 512q0 276 95 406.5t271 130.5q188 0 277.5 -133.5t89.5 -403.5q0 -279 -96.5 -408t-270.5 -129q-188 0 -277 133.5t-89 403.5zM229 512q0 -90 11.5 -164t37 -127t66.5 -82.5t98 -29.5q106 0 159.5 95t53.5 308q0 88 -11 163t-36.5 128t-66.5 82.5t-99 29.5 q-104 0 -158.5 -96t-54.5 -307z" />
<glyph unicode="p" horiz-adv-x="890" d="M121 -410v1434h104l23 -111h8q76 135 238 136q162 0 242.5 -121t80.5 -396q0 -129 -26.5 -232t-75.5 -176t-120 -111t-157 -38q-59 0 -94 7.5t-76 29.5v-422h-147zM268 162q29 -25 65 -39t95 -14q109 0 172.5 110.5t63.5 315.5q0 86 -11.5 155.5t-36 119.5t-62.5 77.5 t-93 27.5q-150 0 -193 -182v-571z" />
<glyph unicode="q" horiz-adv-x="884" d="M76 508q0 264 104.5 399t302.5 135q86 0 164 -20.5t119 -42.5v-1389h-148v494h-8q-33 -51 -83 -80t-130 -29q-162 0 -241.5 130.5t-79.5 402.5zM229 510q0 -86 10.5 -160t34 -128t61.5 -83.5t93 -29.5q78 0 123 45t67 131v589q-57 35 -161 35q-106 0 -167 -98t-61 -301z " />
<glyph unicode="r" horiz-adv-x="561" d="M121 0v1024h104l27 -109h6q29 59 75 93t111 34q47 0 107 -18l-29 -150q-53 18 -94 19q-66 0 -106.5 -38t-53.5 -101v-754h-147z" />
<glyph unicode="s" horiz-adv-x="692" d="M59 39l45 129q41 -25 97.5 -42t115.5 -17q68 0 115 33.5t47 109.5q0 63 -28.5 104t-72.5 74t-95.5 60.5t-95.5 66.5t-72.5 92t-28.5 135q0 131 70.5 198t199.5 67q84 0 145.5 -15.5t106.5 -42.5l-39 -123q-39 20 -90 33.5t-104 13.5q-74 0 -108 -30.5t-34 -96.5 q0 -51 29 -86.5t73 -65.5t95 -60.5t95 -72.5t73 -100.5t29 -146.5q0 -57 -18.5 -108.5t-56.5 -89.5t-94.5 -60.5t-131.5 -22.5q-90 0 -156 17.5t-111 46.5z" />
<glyph unicode="t" horiz-adv-x="563" d="M18 891v133h125v203l148 47v-250h221v-133h-221v-610q0 -90 21.5 -130t70.5 -40q41 0 70.5 9t64.5 23l29 -116q-45 -23 -99.5 -36.5t-113.5 -13.5q-102 0 -146.5 67t-44.5 216v631h-125z" />
<glyph unicode="u" horiz-adv-x="888" d="M106 360v664h148v-627q0 -156 31.5 -222t115.5 -66q43 0 77 17t60.5 46t47 65.5t32.5 75.5v711h148v-733q0 -74 5 -153t15 -138h-104l-37 143h-6q-35 -68 -100.5 -118t-163.5 -50q-66 0 -115 16.5t-84 59.5t-52.5 117.5t-17.5 191.5z" />
<glyph unicode="v" horiz-adv-x="794" d="M8 1024h168l193 -600l41 -203h4l37 207l180 596h155l-350 -1047h-71z" />
<glyph unicode="w" horiz-adv-x="1208" d="M10 1024h158l158 -596l24 -199h4l37 203l168 592h109l182 -598l37 -197h4l31 201l139 594h139l-272 -1047h-84l-207 672l-29 172h-4l-29 -174l-200 -670h-84z" />
<glyph unicode="x" horiz-adv-x="843" d="M39 0l291 524l-271 500h177l151 -293l41 -115l43 115l156 293h161l-272 -492l289 -532h-168l-172 322l-45 122l-47 -122l-172 -322h-162z" />
<glyph unicode="y" horiz-adv-x="770" d="M14 1024h168l193 -662l43 -198h10l31 198l155 662h150l-244 -920q-29 -111 -57.5 -207t-62 -166.5t-75.5 -110.5t-100 -40q-57 0 -100 19l25 139q29 -10 57.5 -4t54 34.5t47 85t37.5 146.5z" />
<glyph unicode="z" horiz-adv-x="737" d="M66 0v133l380 670l72 88h-452v133h598v-133l-383 -676l-70 -82h453v-133h-598z" />
<glyph unicode="{" horiz-adv-x="577" d="M88 416v133q63 0 97 41t34 131v506q0 96 38 152.5t124 56.5h151v-133h-79q-47 0 -66.5 -26t-19.5 -91v-500q0 -90 -34 -137t-81 -57v-13q47 -8 81 -62.5t34 -140.5v-497q0 -63 19.5 -90t68.5 -27h77v-133h-151q-162 0 -162 207v497q0 104 -34 143.5t-97 39.5z" />
<glyph unicode="|" horiz-adv-x="389" d="M133 -266v1700h125v-1700h-125z" />
<glyph unicode="}" horiz-adv-x="577" d="M45 -338h78q49 0 68.5 26.5t19.5 90.5v497q0 86 34 140.5t81 62.5v13q-47 10 -81 57t-34 137v500q0 66 -19.5 91.5t-66.5 25.5h-80v133h152q86 0 123.5 -56.5t37.5 -152.5v-506q0 -90 34 -131t97 -41v-133q-63 0 -97 -39t-34 -144v-497q0 -207 -161 -207h-152v133z" />
<glyph unicode="~" horiz-adv-x="849" d="M47 739q74 68 133.5 94.5t110.5 26.5q47 0 88 -17.5t78 -37t72.5 -36.5t72.5 -17q29 0 61.5 14t67.5 53l70 -123q-66 -55 -117 -76.5t-94 -21.5q-45 0 -83 17.5t-74 39t-71.5 39t-74.5 17.5q-37 0 -79 -20.5t-93 -72.5z" />
<glyph unicode="&#xa1;" horiz-adv-x="505" d="M328.011 932.006q0 -56.9971 -27.998 -85.9951t-74.9951 -28.998t-74.4961 28.498q-27.498 28.498 -27.498 86.4951q0 58.9961 27.498 87.9941q27.499 28.998 74.4961 28.998t74.9951 -28.998t27.998 -87.9941zM301.013 301.044v-710.956h-152.991v710.956 l29.999 360.979h91.9941z" />
<glyph unicode="&#xa2;" d="M156 512q0 233 77.5 368.5t225.5 161.5v187h133v-182q55 -4 98 -16.5t78 -33.5l-41 -129q-31 18 -68.5 29.5t-78.5 15.5v-804q51 4 92 22.5t67 40.5l43 -117q-37 -31 -87 -49t-103 -24v-187h-133v185q-84 12 -141.5 55t-93.5 111.5t-52 161.5t-16 204zM303 512 q6 -74 15.5 -138.5t30 -115.5t53 -88t79.5 -51v788q-88 -23 -130 -119t-48 -276z" />
<glyph unicode="&#xa3;" d="M86 0v137q51 2 89 26.5t62.5 64.5t37 90.5t12.5 99.5q0 70 -12.5 125t-28.5 106h-160v133h111q-20 59 -35 127t-15 160q0 199 94.5 294t254.5 95q100 0 173.5 -16.5t125.5 -40.5l-50 -131q-39 20 -99 35.5t-146 15.5q-94 0 -146.5 -65.5t-52.5 -192.5q0 -86 18.5 -151.5 t40.5 -129.5h261v-133h-213q14 -47 23 -100t9 -119q0 -59 -17 -129t-48 -113l-80 -71v-8l121 28h411v-137h-741z" />
<glyph unicode="&#xa4;" d="M6 367l139 141l62 39q-57 76 -57 186q0 53 15 99.5t42 85.5l-62 38l-139 142l88 88l142 -137l38 -64q76 59 187 59q53 0 101 -15t85 -44l39 64l143 137l86 -88l-137 -142l-63 -38q57 -80 57 -185q0 -115 -57 -186l63 -39l137 -141l-86 -88l-143 139l-37 61 q-80 -57 -188 -57q-111 0 -187 57l-38 -61l-142 -139zM276 733q0 -84 51.5 -138t133.5 -54t134 54t52 138q0 80 -52 135.5t-134 55.5t-133.5 -55.5t-51.5 -135.5z" />
<glyph unicode="&#xa5;" d="M6 1434h180l258 -625l27 -125h4l27 129l250 621h166l-336 -766h163v-119h-204v-146h204v-118h-204v-285h-154v285h-205v118h205v146h-205v119h162z" />
<glyph unicode="&#xa6;" horiz-adv-x="387" d="M131 -266v688h125v-688h-125zM131 745v689h125v-689h-125z" />
<glyph unicode="&#xa7;" horiz-adv-x="829" d="M92 723q0 63 26.5 125.5t74.5 109.5l69 31q-45 35 -76.5 84t-31.5 135q0 109 68.5 179.5t203.5 70.5q86 0 149.5 -16.5t108.5 -38.5l-37 -127q-43 20 -95 34.5t-110 14.5q-74 0 -107.5 -35t-33.5 -86q0 -53 33 -86t81 -58.5t104 -50t104.5 -61.5t81 -93t32.5 -144 q0 -63 -24.5 -128t-71.5 -112l-74 -29q43 -33 76 -83t33 -134q0 -123 -77 -186.5t-202 -63.5q-86 0 -147.5 15.5t-106.5 44.5l39 125q39 -23 90.5 -37t108.5 -14q147 0 147 124q0 49 -32.5 81t-80.5 57.5t-104.5 50t-104.5 62.5t-81 94.5t-33 144.5zM240 727q0 -47 19.5 -81 t52 -59.5t74.5 -45t87 -39.5q45 29 81 84t36 121q0 49 -19.5 81.5t-52.5 56t-75 43t-87 40.5q-49 -29 -82.5 -78t-33.5 -123z" />
<glyph unicode="&#xa8;" horiz-adv-x="747" d="M123 1337q0 47 23.5 74t64.5 27t64.5 -27t23.5 -74q0 -43 -23.5 -69.5t-64.5 -26.5t-64.5 26.5t-23.5 69.5zM449 1337q0 47 23.5 74t64.5 27t64.5 -27t23.5 -74q0 -43 -23.5 -69.5t-64.5 -26.5t-64.5 26.5t-23.5 69.5z" />
<glyph unicode="&#xa9;" horiz-adv-x="1419" d="M102 600q0 143 48.5 256t131.5 190.5t193.5 119.5t235.5 42t235.5 -42t193.5 -119.5t131 -190.5t48 -256t-48 -256t-131 -191.5t-193.5 -119.5t-235.5 -41q-139 0 -251 41t-192 119.5t-123 191.5t-43 256zM225 600q0 -119 38 -211t103.5 -154.5t153.5 -95.5t191 -33 q100 0 189 33t154.5 95.5t103.5 154.5t38 211t-38 211t-103.5 154.5t-154.5 95.5t-189 33q-102 0 -190.5 -33t-154 -95.5t-103.5 -154.5t-38 -211zM422 600q0 158 79 243t208 85q63 0 102 -12.5t90 -34.5l-45 -113q-39 18 -72.5 26.5t-58.5 8.5q-72 0 -114 -46t-42 -157 q0 -203 170 -203q78 0 138 33l36 -113q-41 -23 -90 -35t-114 -12q-139 0 -213 89t-74 241z" />
<glyph unicode="&#xaa;" horiz-adv-x="647" d="M74 965q0 68 28.5 112.5t77.5 71.5t113.5 36t140.5 5q4 82 -13.5 116.5t-82.5 34.5q-59 0 -111.5 -13t-87.5 -30l-33 97q43 23 112 39t155 16q109 0 147.5 -53.5t40.5 -153.5q-2 -141 -8 -258t16 -207h-102l-25 86h-6q-20 -35 -60 -64.5t-108 -29.5q-92 0 -143 52.5 t-51 142.5zM203 977q0 -41 22.5 -68.5t67.5 -27.5q61 0 93 29.5t48 60.5v116q-43 2 -84 1t-73.5 -11t-53 -33.5t-20.5 -66.5z" />
<glyph unicode="&#xab;" horiz-adv-x="790" d="M59 530l265 471l102 -69l-168 -316l-78 -84l78 -73l180 -309l-104 -72zM365 530l260 467l98 -67l-164 -314l-78 -84l78 -73l174 -307l-98 -70z" />
<glyph unicode="&#xac;" horiz-adv-x="849" d="M74 659v142h702v-391h-133v249h-569z" />
<glyph unicode="&#xad;" horiz-adv-x="595" d="M96 514v141h404v-141h-404z" />
<glyph unicode="&#xae;" horiz-adv-x="1210" d="M147 1004q0 111 37 195.5t99.5 143t145.5 88t175 29.5q96 0 180 -29.5t145.5 -88t97.5 -143.5t36 -195q0 -111 -37 -197t-99.5 -144.5t-145.5 -88t-177 -29.5q-96 0 -179 29.5t-144.5 88t-97.5 144.5t-36 197zM258 1004q0 -90 27.5 -157t75 -112t109.5 -66.5t134 -21.5 q76 0 139.5 21.5t109.5 65.5t72.5 110.5t26.5 159.5q0 88 -27.5 154.5t-74.5 111.5t-110.5 66.5t-135.5 21.5q-76 0 -139.5 -21.5t-109.5 -66.5t-71.5 -111.5t-25.5 -154.5zM426 778v449q29 8 79 13t95 5q72 0 124 -30.5t52 -104.5q0 -55 -34.5 -85t-88.5 -34l49 -22 l127 -191h-106l-123 180l-84 27v-207h-90zM516 1036h59q104 0 105 70q0 61 -100 61q-16 0 -35 -1t-29 -7v-123z" />
<glyph unicode="&#xaf;" horiz-adv-x="743" d="M123 1196v121h498v-121h-498z" />
<glyph unicode="&#xb0;" horiz-adv-x="700" d="M127 1169q0 129 65.5 209t174.5 80q106 0 173.5 -74.5t67.5 -214.5q0 -139 -67.5 -213.5t-173.5 -74.5q-109 0 -174.5 74.5t-65.5 213.5zM244 1169q0 -80 33.5 -130t89.5 -50q55 0 90 50.5t35 129.5q0 80 -35 130.5t-90 50.5t-89 -50.5t-34 -130.5z" />
<glyph unicode="&#xb1;" horiz-adv-x="849" d="M72 369v137h706v-137h-706zM72 823v138h284v317h138v-317h284v-138h-284v-215h-138v215h-284z" />
<glyph unicode="&#xb2;" horiz-adv-x="675" d="M90 844q43 43 99.5 109.5t107.5 142t86 155.5t35 152q0 61 -32 94t-79 33q-45 0 -87 -14.5t-70 -34.5l-41 106q41 33 101 49.5t120 16.5q104 0 160.5 -59.5t56.5 -170.5q0 -66 -17.5 -128t-47 -122.5t-69.5 -119t-83 -115.5l-76 -66v-4l94 31h230v-121h-488v66z" />
<glyph unicode="&#xb3;" horiz-adv-x="675" d="M117 801l26 114q31 -16 67 -25t79 -9q78 0 117.5 42t37.5 117q2 66 -33.5 107t-119.5 41h-90v47l157 244l60 55l-84 -12h-215v116h432v-65l-168 -258l-43 -35v-6l41 6q92 0 144.5 -64.5t49.5 -175.5q2 -125 -74.5 -200.5t-199.5 -75.5q-59 0 -104 10.5t-80 26.5z" />
<glyph unicode="&#xb4;" horiz-adv-x="501" d="M123 1169l96 306h160v-43l-168 -263h-88z" />
<glyph unicode="&#xb5;" d="M109 -410v1434h147v-618q0 -147 42 -222t138 -75q86 0 143.5 51t84.5 137v727h147v-690q0 -84 4 -169t21 -165h-105l-47 127h-6q-33 -66 -98.5 -109t-159.5 -43q-76 0 -118 27t-71 68h-10l37 -207v-273h-149z" />
<glyph unicode="&#x3bc;" d="M109 -410v1434h147v-618q0 -147 42 -222t138 -75q86 0 143.5 51t84.5 137v727h147v-690q0 -84 4 -169t21 -165h-105l-47 127h-6q-33 -66 -98.5 -109t-159.5 -43q-76 0 -118 27t-71 68h-10l37 -207v-273h-149z" />
<glyph unicode="&#xb6;" horiz-adv-x="825" d="M59 1036q0 80 19.5 153t56.5 127t89 86t120 32h84v-1700h-125v901q-55 0 -99 31.5t-77 87t-50.5 128t-17.5 154.5zM569 -266v1700h125v-1700h-125z" />
<glyph unicode="&#xb7;" horiz-adv-x="436" d="M117 604q0 57 27.5 86t74.5 29t75 -28.5t28 -86.5q0 -59 -28 -88t-75 -29t-74.5 29t-27.5 88z" />
<glyph unicode="&#xb8;" horiz-adv-x="536" d="M123 -418l14 80q47 -4 75 2t42 18.5t18 28t4 29.5q0 57 -141 76l82 184h102l-38 -88q133 -31 133 -154q0 -80 -58.5 -132t-156.5 -52q-41 0 -76 8z" />
<glyph unicode="&#xb9;" horiz-adv-x="675" d="M92 1442l256 211h84v-758h154v-117h-457v117h172v526l12 74l-45 -57l-123 -82z" />
<glyph unicode="&#xba;" horiz-adv-x="661" d="M70 1110q0 94 19.5 160.5t55 108.5t83.5 60.5t104 18.5q55 0 103 -17.5t84 -57.5t55.5 -107.5t19.5 -165.5t-19.5 -165.5t-55.5 -107.5t-84 -57.5t-103 -17.5t-103.5 17.5t-84 57.5t-55 107.5t-19.5 165.5zM203 1110q0 -133 35.5 -184.5t93.5 -51.5q29 0 52.5 10.5 t39.5 36t25.5 71.5t9.5 118q0 70 -9.5 116t-25.5 72.5t-40 37t-52 10.5q-31 0 -54.5 -10.5t-40 -37t-25.5 -72.5t-9 -116z" />
<glyph unicode="&#xbb;" horiz-adv-x="790" d="M57 930l99 67l270 -448l-260 -467l-100 65l165 316l78 84l-78 74zM352 932l105 69l274 -452l-264 -471l-105 67l170 318l78 84l-78 74z" />
<glyph unicode="&#xbc;" horiz-adv-x="1398" d="M246 33l789 1427l100 -55l-786 -1430zM706 193v69l371 615h92v-570h133v-114h-133v-197h-125v197h-338zM837 299l84 8h123v256l14 109h-8l-37 -102l-120 -209zM69 1239l254 209h84v-875h-131v646l12 73l-45 -59l-120 -84z" />
<glyph unicode="&#xbd;" horiz-adv-x="1435" d="M246 33l789 1427l100 -55l-786 -1430zM854 66q43 43 99.5 109.5t107.5 142t86 155.5t35 152q0 61 -32 94t-79 33q-45 0 -87 -14.5t-70 -34.5l-41 106q41 33 101 49.5t120 16.5q104 0 160.5 -59.5t56.5 -170.5q0 -66 -17.5 -128t-47 -122.5t-69.5 -119t-83 -115.5l-76 -66 v-4l94 31h230v-121h-488v66zM69 1239l254 209h84v-875h-131v646l12 73l-45 -59l-120 -84z" />
<glyph unicode="&#xbe;" horiz-adv-x="1454" d="M303 33l789 1427l100 -55l-786 -1430zM764 193v69l371 615h92v-570h133v-114h-133v-197h-125v197h-338zM895 299l84 8h123v256l14 109h-8l-37 -102l-120 -209zM97 596l26 114q31 -16 67 -25t79 -9q78 0 117.5 42t37.5 117q2 66 -33.5 107t-119.5 41h-90v47l157 244l60 55 l-84 -12h-215v116h432v-65l-168 -258l-43 -35v-6l41 6q92 0 144.5 -64.5t49.5 -175.5q2 -125 -74.5 -200.5t-199.5 -75.5q-59 0 -104 10.5t-80 26.5z" />
<glyph unicode="&#xbf;" horiz-adv-x="733" d="M675.004 -339.917q-60.9961 -40.9971 -133.492 -67.4961q-72.4951 -26.498 -177.488 -26.498q-146.991 0 -222.986 85.9951q-75.9961 85.9941 -75.9961 234.985q0 87.9951 22.499 157.99q22.498 69.9961 55.4961 127.992q32.998 57.9971 71.9961 111.493 q38.9971 53.4971 72.4951 109.993q33.498 56.4971 55.9971 120.993q22.498 64.4961 22.498 146.491h122.993q5.99902 -89.9951 -11.5 -159.99q-17.498 -69.9961 -47.9971 -128.492q-30.498 -58.4971 -66.4951 -109.493q-35.998 -50.9971 -68.4961 -105.494 q-32.498 -54.4961 -53.9971 -114.493q-21.498 -59.9961 -21.498 -135.991q0 -93.9941 40.9971 -151.491q40.998 -57.4961 138.991 -57.4961q58.9971 0 116.493 21.498q57.4961 21.499 102.494 54.4971zM520.014 932.006q0 -56.9971 -27.498 -85.9951 q-27.499 -28.998 -75.4961 -28.998q-46.9971 0 -74.4951 28.498t-27.498 86.4951q0 58.9961 27.498 87.9941t74.4951 28.998t74.9961 -28.998q27.998 -28.998 27.998 -87.9941z" />
<glyph unicode="&#xc0;" horiz-adv-x="968" d="M10 0l432 1456h84l432 -1456h-159l-117 401h-406l-114 -401h-152zM317 539h328l-125 442l-39 215h-4l-39 -219zM225 1739v43h203l190 -242h-133z" />
<glyph unicode="&#xc1;" horiz-adv-x="968" d="M10 0l432 1456h84l432 -1456h-159l-117 401h-406l-114 -401h-152zM317 539h328l-125 442l-39 215h-4l-39 -219zM346 1540l190 242h203v-43l-268 -199h-125z" />
<glyph unicode="&#xc2;" horiz-adv-x="968" d="M10 0l432 1456h84l432 -1456h-159l-117 401h-406l-114 -401h-152zM317 539h328l-125 442l-39 215h-4l-39 -219zM217 1530v45l219 207h102l209 -209v-43h-135l-96 100l-31 72l-31 -70l-106 -102h-131z" />
<glyph unicode="&#xc3;" horiz-adv-x="968" d="M10 0l432 1456h84l432 -1456h-159l-117 401h-406l-114 -401h-152zM317 539h328l-125 442l-39 215h-4l-39 -219zM205 1597q57 70 105 95.5t91 25.5q33 0 63 -10t57.5 -21.5t53 -21.5t52.5 -10q23 0 44 8t44 33l53 -76q-49 -57 -92 -77.5t-80 -20.5q-31 0 -59.5 10 t-56 21.5t-54.5 21.5t-55 10q-29 0 -56.5 -12t-60.5 -47z" />
<glyph unicode="&#xc4;" horiz-adv-x="968" d="M10 0l432 1456h84l432 -1456h-159l-117 401h-406l-114 -401h-152zM317 539h328l-125 442l-39 215h-4l-39 -219zM227 1626q0 43 25.5 69.5t70.5 26.5q43 0 68.5 -26.5t25.5 -69.5t-25.5 -68.5t-68.5 -25.5q-45 0 -70.5 25.5t-25.5 68.5zM550 1626q0 43 26 69.5t69 26.5 q45 0 70.5 -26.5t25.5 -69.5t-25.5 -68.5t-70.5 -25.5q-43 0 -69 25.5t-26 68.5z" />
<glyph unicode="&#xc5;" horiz-adv-x="968" d="M10 0l418 1407q-61 16 -93 58t-32 108q0 76 43 125t141 47q88 2 136.5 -42t48.5 -130q0 -63 -33 -107.5t-98 -58.5l417 -1407h-159l-117 401h-406l-114 -401h-152zM317 539h328l-125 442l-39 215h-4l-39 -219zM414 1573q0 -37 17.5 -60.5t55.5 -23.5q74 0 74 84 q0 88 -74 90q-73 -2 -73 -90z" />
<glyph unicode="&#xc6;" horiz-adv-x="1398" d="M-37 0l686 1434h641v-142h-485v-485h444v-141h-444v-525h493v-141h-647v408h-338l-184 -408h-166zM381 545h270v661h-6l-53 -200z" />
<glyph unicode="&#xc7;" horiz-adv-x="937" d="M88 717q0 205 42 346t111.5 229t161 127t187.5 39q98 0 162.5 -14t111.5 -35l-37 -139q-41 23 -96 35t-127 12t-135 -32t-112.5 -102.5t-78 -185t-28.5 -280.5q0 -299 102.5 -448.5t272.5 -149.5q70 0 125 19.5t94 45.5l37 -129q-43 -37 -106.5 -55t-135.5 -23l-29 -65 q133 -31 133 -154q0 -80 -58 -132t-157 -52q-41 0 -75 8l14 80q47 -4 74.5 2t42 18.5t18.5 28t4 29.5q0 57 -141 76l72 164q-98 8 -181.5 54t-142.5 135t-92 224.5t-33 323.5z" />
<glyph unicode="&#xc8;" horiz-adv-x="878" d="M131 0v1434h637v-142h-483v-485h444v-141h-444v-525h493v-141h-647zM154 1739v43h203l190 -242h-133z" />
<glyph unicode="&#xc9;" horiz-adv-x="878" d="M131 0v1434h637v-142h-483v-485h444v-141h-444v-525h493v-141h-647zM338 1540l190 242h203v-43l-268 -199h-125z" />
<glyph unicode="&#xca;" horiz-adv-x="878" d="M131 0v1434h637v-142h-483v-485h444v-141h-444v-525h493v-141h-647zM174 1530v45l219 207h102l209 -209v-43h-135l-96 100l-31 72l-31 -70l-106 -102h-131z" />
<glyph unicode="&#xcb;" horiz-adv-x="878" d="M131 0v1434h637v-142h-483v-485h444v-141h-444v-525h493v-141h-647zM184 1626q0 43 25.5 69.5t70.5 26.5q43 0 68.5 -26.5t25.5 -69.5t-25.5 -68.5t-68.5 -25.5q-45 0 -70.5 25.5t-25.5 68.5zM507 1626q0 43 26 69.5t69 26.5q45 0 70.5 -26.5t25.5 -69.5t-25.5 -68.5 t-70.5 -25.5q-43 0 -69 25.5t-26 68.5z" />
<glyph unicode="&#xcc;" horiz-adv-x="477" d="M162 0v1434h153v-1434h-153zM-2 1739v43h203l190 -242h-133z" />
<glyph unicode="&#xcd;" horiz-adv-x="477" d="M162 0v1434h153v-1434h-153zM98 1540l190 242h203v-43l-268 -199h-125z" />
<glyph unicode="&#xce;" horiz-adv-x="477" d="M162 0v1434h153v-1434h-153zM-27 1530v45l219 207h102l209 -209v-43h-135l-96 100l-31 72l-31 -70l-106 -102h-131z" />
<glyph unicode="&#xcf;" horiz-adv-x="477" d="M162 0v1434h153v-1434h-153zM-16 1626q0 43 25.5 69.5t70.5 26.5q43 0 68.5 -26.5t25.5 -69.5t-25.5 -68.5t-68.5 -25.5q-45 0 -70.5 25.5t-25.5 68.5zM307 1626q0 43 26 69.5t69 26.5q45 0 70.5 -26.5t25.5 -69.5t-25.5 -68.5t-70.5 -25.5q-43 0 -69 25.5t-26 68.5z" />
<glyph unicode="&#xd0;" horiz-adv-x="1087" d="M-2 684v121h145v629q33 6 73 9t81 4t81 2t75 1q150 0 254 -51t169.5 -146.5t94 -228.5t28.5 -297q0 -147 -27.5 -282.5t-93 -238t-173 -163.5t-269.5 -61q-27 0 -67.5 1t-84.5 4t-82 5t-59 6v686h-145zM297 131q8 -2 29.5 -3t45 -2t45 -2t32.5 -1q113 0 188.5 49 t119.5 132t62.5 192.5t18.5 232.5q0 109 -16.5 213.5t-58.5 185t-115 131t-187 50.5h-44q-24 0 -46.5 -2t-42 -4.5t-31.5 -4.5v-493h240v-121h-240v-553z" />
<glyph unicode="&#xd1;" horiz-adv-x="1101" d="M131 0v1456h92l531 -930l84 -215h8l-23 215v908h148v-1457h-94l-527 932l-88 226h-6l23 -226v-909h-148zM277 1597q57 70 105 95.5t91 25.5q33 0 63 -10t57.5 -21.5t53 -21.5t52.5 -10q23 0 44 8t44 33l53 -76q-49 -57 -92 -77.5t-80 -20.5q-31 0 -59.5 10t-56 21.5 t-54.5 21.5t-55 10q-29 0 -56.5 -12t-60.5 -47z" />
<glyph unicode="&#xd2;" horiz-adv-x="1124" d="M88 717q0 365 117 553t356 188q129 0 219 -52t146.5 -148.5t83 -233.5t26.5 -307q0 -365 -117.5 -553.5t-357.5 -188.5q-127 0 -217 52.5t-147.5 148.5t-83 233.5t-25.5 307.5zM250 717q0 -121 17.5 -229.5t54 -190.5t96 -131t143.5 -49q154 0 233.5 147.5t79.5 452.5 q0 119 -17 227.5t-54 191.5t-96.5 132t-145.5 49q-152 0 -231.5 -147.5t-79.5 -452.5zM289 1739v43h203l190 -242h-133z" />
<glyph unicode="&#xd3;" horiz-adv-x="1124" d="M88 717q0 365 117 553t356 188q129 0 219 -52t146.5 -148.5t83 -233.5t26.5 -307q0 -365 -117.5 -553.5t-357.5 -188.5q-127 0 -217 52.5t-147.5 148.5t-83 233.5t-25.5 307.5zM250 717q0 -121 17.5 -229.5t54 -190.5t96 -131t143.5 -49q154 0 233.5 147.5t79.5 452.5 q0 119 -17 227.5t-54 191.5t-96.5 132t-145.5 49q-152 0 -231.5 -147.5t-79.5 -452.5zM496 1540l190 242h203v-43l-268 -199h-125z" />
<glyph unicode="&#xd4;" horiz-adv-x="1124" d="M88 717q0 365 117 553t356 188q129 0 219 -52t146.5 -148.5t83 -233.5t26.5 -307q0 -365 -117.5 -553.5t-357.5 -188.5q-127 0 -217 52.5t-147.5 148.5t-83 233.5t-25.5 307.5zM250 717q0 -121 17.5 -229.5t54 -190.5t96 -131t143.5 -49q154 0 233.5 147.5t79.5 452.5 q0 119 -17 227.5t-54 191.5t-96.5 132t-145.5 49q-152 0 -231.5 -147.5t-79.5 -452.5zM293 1530v45l219 207h102l209 -209v-43h-135l-96 100l-31 72l-31 -70l-106 -102h-131z" />
<glyph unicode="&#xd5;" horiz-adv-x="1124" d="M88 717q0 365 117 553t356 188q129 0 219 -52t146.5 -148.5t83 -233.5t26.5 -307q0 -365 -117.5 -553.5t-357.5 -188.5q-127 0 -217 52.5t-147.5 148.5t-83 233.5t-25.5 307.5zM250 717q0 -121 17.5 -229.5t54 -190.5t96 -131t143.5 -49q154 0 233.5 147.5t79.5 452.5 q0 119 -17 227.5t-54 191.5t-96.5 132t-145.5 49q-152 0 -231.5 -147.5t-79.5 -452.5zM285 1597q57 70 105 95.5t91 25.5q33 0 63 -10t57.5 -21.5t53 -21.5t52.5 -10q23 0 44 8t44 33l53 -76q-49 -57 -92 -77.5t-80 -20.5q-31 0 -59.5 10t-56 21.5t-54.5 21.5t-55 10 q-29 0 -56.5 -12t-60.5 -47z" />
<glyph unicode="&#xd6;" horiz-adv-x="1124" d="M88 717q0 365 117 553t356 188q129 0 219 -52t146.5 -148.5t83 -233.5t26.5 -307q0 -365 -117.5 -553.5t-357.5 -188.5q-127 0 -217 52.5t-147.5 148.5t-83 233.5t-25.5 307.5zM250 717q0 -121 17.5 -229.5t54 -190.5t96 -131t143.5 -49q154 0 233.5 147.5t79.5 452.5 q0 119 -17 227.5t-54 191.5t-96.5 132t-145.5 49q-152 0 -231.5 -147.5t-79.5 -452.5zM305 1626q0 43 25.5 69.5t70.5 26.5q43 0 68.5 -26.5t25.5 -69.5t-25.5 -68.5t-68.5 -25.5q-45 0 -70.5 25.5t-25.5 68.5zM628 1626q0 43 26 69.5t69 26.5q45 0 70.5 -26.5t25.5 -69.5 t-25.5 -68.5t-70.5 -25.5q-43 0 -69 25.5t-26 68.5z" />
<glyph unicode="&#xd7;" horiz-adv-x="849" d="M109 426l227 268l-225 262l102 95l213 -250l215 250l100 -95l-223 -262l223 -266l-100 -92l-215 250l-215 -252z" />
<glyph unicode="&#xd8;" horiz-adv-x="1124" d="M88 717q0 365 117 553t356 188q92 0 165 -27.5t126 -78.5l61 108l99 -55l-84 -150q57 -98 82.5 -233t25.5 -305q0 -365 -117.5 -553.5t-357.5 -188.5q-178 0 -287 103l-55 -103l-100 58l78 141q-57 98 -83 234.5t-26 308.5zM250 717q0 -100 11 -191.5t36 -169.5l471 844 q-37 55 -88 86t-119 31q-152 0 -231.5 -147.5t-79.5 -452.5zM358 227q37 -53 87.5 -81.5t115.5 -28.5q154 0 233.5 147.5t79.5 452.5q0 98 -11 188t-36 166z" />
<glyph unicode="&#xd9;" horiz-adv-x="1067" d="M131 440v994h154v-914q0 -111 14 -186.5t47 -122.5t82 -67.5t121 -20.5q135 0 187 94t52 303v914h148v-961q0 -260 -101.5 -375.5t-287.5 -115.5q-217 0 -316.5 112.5t-99.5 345.5zM275 1739v43h203l190 -242h-133z" />
<glyph unicode="&#xda;" horiz-adv-x="1067" d="M131 440v994h154v-914q0 -111 14 -186.5t47 -122.5t82 -67.5t121 -20.5q135 0 187 94t52 303v914h148v-961q0 -260 -101.5 -375.5t-287.5 -115.5q-217 0 -316.5 112.5t-99.5 345.5zM447 1540l190 242h203v-43l-268 -199h-125z" />
<glyph unicode="&#xdb;" horiz-adv-x="1067" d="M131 440v994h154v-914q0 -111 14 -186.5t47 -122.5t82 -67.5t121 -20.5q135 0 187 94t52 303v914h148v-961q0 -260 -101.5 -375.5t-287.5 -115.5q-217 0 -316.5 112.5t-99.5 345.5zM273 1530v45l219 207h102l209 -209v-43h-135l-96 100l-31 72l-31 -70l-106 -102h-131z " />
<glyph unicode="&#xdc;" horiz-adv-x="1067" d="M131 440v994h154v-914q0 -111 14 -186.5t47 -122.5t82 -67.5t121 -20.5q135 0 187 94t52 303v914h148v-961q0 -260 -101.5 -375.5t-287.5 -115.5q-217 0 -316.5 112.5t-99.5 345.5zM277 1626q0 43 25.5 69.5t70.5 26.5q43 0 68.5 -26.5t25.5 -69.5t-25.5 -68.5 t-68.5 -25.5q-45 0 -70.5 25.5t-25.5 68.5zM600 1626q0 43 26 69.5t69 26.5q45 0 70.5 -26.5t25.5 -69.5t-25.5 -68.5t-70.5 -25.5q-43 0 -69 25.5t-26 68.5z" />
<glyph unicode="&#xdd;" horiz-adv-x="931" d="M10 1434h180l259 -625l26 -125h4l27 129l250 621h166l-377 -863v-571h-154v569zM387 1540l190 242h203v-43l-268 -199h-125z" />
<glyph unicode="&#xde;" horiz-adv-x="925" d="M133 0v1434h154v-160q63 6 131 6q82 0 161.5 -19.5t144 -68.5t104.5 -135t40 -219q0 -129 -37.5 -219.5t-100 -145.5t-143.5 -80.5t-167 -25.5h-27q-18 0 -38.5 1t-40 3t-27.5 4v-375h-154zM287 516q8 -4 25.5 -5t36 -3t35.5 -2h26q57 0 110 14.5t94 52t67 102t26 165.5 q0 84 -24 141t-61.5 93t-89 51.5t-106.5 15.5q-41 0 -79 -2t-60 -9v-614z" />
<glyph unicode="&#xdf;" horiz-adv-x="999" d="M33 891v133h125v51q0 203 85 287t230 84q68 0 126 -18.5t102 -54.5t69 -88t25 -120t-33 -116t-71 -86.5t-70.5 -77.5t-32.5 -88q0 -47 25.5 -80t63.5 -61.5t83 -58.5t83 -71t63.5 -99t25.5 -144q0 -57 -20.5 -112.5t-59.5 -98.5t-96.5 -70t-132.5 -27q-76 0 -124 12.5 t-93 41.5l40 125q43 -25 75 -36.5t89 -11.5q70 0 122 47.5t52 125.5q0 63 -25.5 105t-64.5 73.5t-83 59.5t-83 63.5t-64.5 85t-25.5 125.5q0 68 33 114.5t72 86.5t71.5 79t32.5 88q0 35 -15.5 63.5t-40 48t-54 31t-60.5 11.5q-45 0 -77.5 -13.5t-53 -46t-31 -89 t-10.5 -142.5v-1022h-147v891h-125z" />
<glyph unicode="&#xe0;" horiz-adv-x="819" d="M59 274q0 88 30 147.5t84 96.5t129 52.5t167 15.5h41q20 0 43 -2q6 63 6 112q0 117 -35 164t-127 47q-57 0 -124.5 -17.5t-112.5 -43.5l-49 117q59 37 144 57t179 20q86 0 138.5 -25.5t82 -69.5t38.5 -100.5t9 -117.5q0 -123 -5 -239.5t-5 -221.5q0 -78 5 -144.5 t20 -125.5h-113l-35 121h-8q-31 -53 -90 -92t-160 -39q-111 0 -181.5 76.5t-70.5 211.5zM213 291q0 -82 40 -127t103 -45q86 0 133.5 41t65.5 90v217q-20 2 -40.5 3t-41.5 1q-49 0 -96 -8t-84 -28.5t-58.5 -55.5t-21.5 -88zM223 1432v43h170l106 -306h-84z" />
<glyph unicode="&#xe1;" horiz-adv-x="819" d="M59 274q0 88 30 147.5t84 96.5t129 52.5t167 15.5h41q20 0 43 -2q6 63 6 112q0 117 -35 164t-127 47q-57 0 -124.5 -17.5t-112.5 -43.5l-49 117q59 37 144 57t179 20q86 0 138.5 -25.5t82 -69.5t38.5 -100.5t9 -117.5q0 -123 -5 -239.5t-5 -221.5q0 -78 5 -144.5 t20 -125.5h-113l-35 121h-8q-31 -53 -90 -92t-160 -39q-111 0 -181.5 76.5t-70.5 211.5zM213 291q0 -82 40 -127t103 -45q86 0 133.5 41t65.5 90v217q-20 2 -40.5 3t-41.5 1q-49 0 -96 -8t-84 -28.5t-58.5 -55.5t-21.5 -88zM301 1169l96 306h160v-43l-168 -263h-88z" />
<glyph unicode="&#xe2;" horiz-adv-x="819" d="M59 274q0 88 30 147.5t84 96.5t129 52.5t167 15.5h41q20 0 43 -2q6 63 6 112q0 117 -35 164t-127 47q-57 0 -124.5 -17.5t-112.5 -43.5l-49 117q59 37 144 57t179 20q86 0 138.5 -25.5t82 -69.5t38.5 -100.5t9 -117.5q0 -123 -5 -239.5t-5 -221.5q0 -78 5 -144.5 t20 -125.5h-113l-35 121h-8q-31 -53 -90 -92t-160 -39q-111 0 -181.5 76.5t-70.5 211.5zM213 291q0 -82 40 -127t103 -45q86 0 133.5 41t65.5 90v217q-20 2 -40.5 3t-41.5 1q-49 0 -96 -8t-84 -28.5t-58.5 -55.5t-21.5 -88zM186 1126l203 373h71l183 -373h-129l-66 136 l-33 118l-35 -118l-73 -136h-121z" />
<glyph unicode="&#xe3;" horiz-adv-x="819" d="M59 274q0 88 30 147.5t84 96.5t129 52.5t167 15.5h41q20 0 43 -2q6 63 6 112q0 117 -35 164t-127 47q-57 0 -124.5 -17.5t-112.5 -43.5l-49 117q59 37 144 57t179 20q86 0 138.5 -25.5t82 -69.5t38.5 -100.5t9 -117.5q0 -123 -5 -239.5t-5 -221.5q0 -78 5 -144.5 t20 -125.5h-113l-35 121h-8q-31 -53 -90 -92t-160 -39q-111 0 -181.5 76.5t-70.5 211.5zM213 291q0 -82 40 -127t103 -45q86 0 133.5 41t65.5 90v217q-20 2 -40.5 3t-41.5 1q-49 0 -96 -8t-84 -28.5t-58.5 -55.5t-21.5 -88zM164 1337q55 70 98 95.5t78 25.5q29 0 53.5 -12 t48 -25.5t45 -26t46.5 -12.5q18 0 37.5 9.5t41.5 33.5l47 -77q-49 -59 -86.5 -82t-70.5 -23q-29 0 -53.5 11.5t-48 25.5t-46 25.5t-47.5 11.5q-23 0 -45 -11.5t-49 -39.5z" />
<glyph unicode="&#xe4;" horiz-adv-x="819" d="M59 274q0 88 30 147.5t84 96.5t129 52.5t167 15.5h41q20 0 43 -2q6 63 6 112q0 117 -35 164t-127 47q-57 0 -124.5 -17.5t-112.5 -43.5l-49 117q59 37 144 57t179 20q86 0 138.5 -25.5t82 -69.5t38.5 -100.5t9 -117.5q0 -123 -5 -239.5t-5 -221.5q0 -78 5 -144.5 t20 -125.5h-113l-35 121h-8q-31 -53 -90 -92t-160 -39q-111 0 -181.5 76.5t-70.5 211.5zM213 291q0 -82 40 -127t103 -45q86 0 133.5 41t65.5 90v217q-20 2 -40.5 3t-41.5 1q-49 0 -96 -8t-84 -28.5t-58.5 -55.5t-21.5 -88zM160 1337q0 47 23.5 74t64.5 27t64.5 -27 t23.5 -74q0 -43 -23.5 -69.5t-64.5 -26.5t-64.5 26.5t-23.5 69.5zM486 1337q0 47 23.5 74t64.5 27t64.5 -27t23.5 -74q0 -43 -23.5 -69.5t-64.5 -26.5t-64.5 26.5t-23.5 69.5z" />
<glyph unicode="&#xe5;" horiz-adv-x="819" d="M59 274q0 88 30 147.5t84 96.5t129 52.5t167 15.5h41q20 0 43 -2q6 63 6 112q0 117 -35 164t-127 47q-57 0 -124.5 -17.5t-112.5 -43.5l-49 117q59 37 144 57t179 20q86 0 138.5 -25.5t82 -69.5t38.5 -100.5t9 -117.5q0 -123 -5 -239.5t-5 -221.5q0 -78 5 -144.5 t20 -125.5h-113l-35 121h-8q-31 -53 -90 -92t-160 -39q-111 0 -181.5 76.5t-70.5 211.5zM213 291q0 -82 40 -127t103 -45q86 0 133.5 41t65.5 90v217q-20 2 -40.5 3t-41.5 1q-49 0 -96 -8t-84 -28.5t-58.5 -55.5t-21.5 -88zM242 1317q0 86 45 134t123 48q74 0 122 -43 t48 -139q0 -82 -46 -131t-124 -49t-123 46t-45 134zM340 1317q0 -47 20.5 -70.5t49.5 -23.5q33 0 52 22.5t19 71.5t-21.5 72.5t-49.5 23.5q-29 0 -49.5 -22.5t-20.5 -73.5z" />
<glyph unicode="&#xe6;" horiz-adv-x="1314" d="M59 279q0 90 30 150t83 96t127 51.5t164 15.5q23 0 45 -1t45 -3q6 63 6 112q0 117 -35 163t-127 46q-57 0 -126.5 -20.5t-116.5 -52.5l-45 114q63 47 148 68.5t177 21.5q172 0 223 -131q41 74 114 107t144 33q57 0 113.5 -15.5t102 -59.5t73 -123t27.5 -204 q0 -35 -3 -73.5t-7 -81.5h-519q2 -188 57.5 -285.5t194.5 -97.5q57 0 112.5 20.5t84.5 44.5l53 -108q-51 -41 -124.5 -66t-164.5 -25q-102 0 -182 44t-119 131h-12q-41 -72 -111.5 -119t-175.5 -47q-115 0 -185.5 80t-70.5 215zM213 295q0 -72 39 -125t102 -53q43 0 77 13 t58.5 34.5t41 47.5t24.5 52v207q-20 2 -40.5 3t-41.5 1q-49 0 -96 -8t-84 -28.5t-58.5 -55.5t-21.5 -88zM702 612h385q4 154 -42 228.5t-130 74.5q-92 0 -147.5 -73.5t-65.5 -229.5z" />
<glyph unicode="&#xe7;" horiz-adv-x="729" d="M76 512q0 262 93 399.5t267 137.5q80 0 137.5 -14.5t98.5 -37.5l-41 -127q-78 45 -178 45q-111 0 -167.5 -97t-56.5 -306q0 -84 12.5 -156.5t41 -127t73.5 -85t113 -30.5q53 0 99 17t75 42l43 -121q-41 -31 -90 -48t-102 -23l-29 -68q133 -31 133 -154q0 -80 -58.5 -132 t-156.5 -52q-41 0 -76 8l15 80q47 -4 74.5 2t42 18.5t18.5 28t4 29.5q0 57 -142 76l72 161q-86 8 -146.5 50.5t-97 111t-54 163.5t-17.5 210z" />
<glyph unicode="&#xe8;" horiz-adv-x="845" d="M76 512q0 262 96 399.5t272 137.5q57 0 113.5 -14.5t102 -57.5t73 -121t27.5 -203q0 -35 -3 -74.5t-7 -82.5h-521q0 -88 14.5 -160t45 -122t79 -77.5t119.5 -27.5q55 0 109.5 20.5t83.5 48.5l53 -108q-49 -45 -125 -70t-159 -25q-96 0 -167 38t-117 109t-67.5 169 t-21.5 221zM231 618h387q0 12 1 25q0 135 -44 201q-47 72 -129 71q-94 0 -149.5 -71.5t-65.5 -225.5zM258 1432v43h170l106 -306h-84z" />
<glyph unicode="&#xe9;" horiz-adv-x="845" d="M76 512q0 262 96 399.5t272 137.5q57 0 113.5 -14.5t102 -57.5t73 -121t27.5 -203q0 -35 -3 -74.5t-7 -82.5h-521q0 -88 14.5 -160t45 -122t79 -77.5t119.5 -27.5q55 0 109.5 20.5t83.5 48.5l53 -108q-49 -45 -125 -70t-159 -25q-96 0 -167 38t-117 109t-67.5 169 t-21.5 221zM231 618h387q0 12 1 25q0 135 -44 201q-47 72 -129 71q-94 0 -149.5 -71.5t-65.5 -225.5zM379 1169l96 306h160v-43l-168 -263h-88z" />
<glyph unicode="&#xea;" horiz-adv-x="845" d="M76 512q0 262 96 399.5t272 137.5q57 0 113.5 -14.5t102 -57.5t73 -121t27.5 -203q0 -35 -3 -74.5t-7 -82.5h-521q0 -88 14.5 -160t45 -122t79 -77.5t119.5 -27.5q55 0 109.5 20.5t83.5 48.5l53 -108q-49 -45 -125 -70t-159 -25q-96 0 -167 38t-117 109t-67.5 169 t-21.5 221zM231 618h387q0 12 1 25q0 135 -44 201q-47 72 -129 71q-94 0 -149.5 -71.5t-65.5 -225.5zM201 1126l203 373h71l183 -373h-129l-66 136l-33 118l-35 -118l-73 -136h-121z" />
<glyph unicode="&#xeb;" horiz-adv-x="845" d="M76 512q0 262 96 399.5t272 137.5q57 0 113.5 -14.5t102 -57.5t73 -121t27.5 -203q0 -35 -3 -74.5t-7 -82.5h-521q0 -88 14.5 -160t45 -122t79 -77.5t119.5 -27.5q55 0 109.5 20.5t83.5 48.5l53 -108q-49 -45 -125 -70t-159 -25q-96 0 -167 38t-117 109t-67.5 169 t-21.5 221zM231 618h387q0 12 1 25q0 135 -44 201q-47 72 -129 71q-94 0 -149.5 -71.5t-65.5 -225.5zM191 1337q0 47 23.5 74t64.5 27t64.5 -27t23.5 -74q0 -43 -23.5 -69.5t-64.5 -26.5t-64.5 26.5t-23.5 69.5zM517 1337q0 47 23.5 74t64.5 27t64.5 -27t23.5 -74 q0 -43 -23.5 -69.5t-64.5 -26.5t-64.5 26.5t-23.5 69.5z" />
<glyph unicode="&#xec;" horiz-adv-x="444" d="M147 0v1024h148v-1024h-148zM10 1432v43h170l106 -306h-84z" />
<glyph unicode="&#xed;" horiz-adv-x="444" d="M147 0v1024h148v-1024h-148zM156 1169l96 306h160v-43l-168 -263h-88z" />
<glyph unicode="&#xee;" horiz-adv-x="444" d="M147 0v1024h148v-1024h-148zM-10 1126l203 373h71l183 -373h-129l-66 136l-33 118l-35 -118l-73 -136h-121z" />
<glyph unicode="&#xef;" horiz-adv-x="444" d="M147 0v1024h148v-1024h-148zM-27 1337q0 47 23.5 74t64.5 27t64.5 -27t23.5 -74q0 -43 -23.5 -69.5t-64.5 -26.5t-64.5 26.5t-23.5 69.5zM299 1337q0 47 23.5 74t64.5 27t64.5 -27t23.5 -74q0 -43 -23.5 -69.5t-64.5 -26.5t-64.5 26.5t-23.5 69.5z" />
<glyph unicode="&#xf0;" d="M84 514q0 117 24.5 214t72.5 168t117 109.5t157 38.5q72 0 127 -24.5t84 -61.5q-23 78 -57 142.5t-77 116.5l-135 -89l-51 78l117 78q-66 53 -137 84l65 90q33 -16 78 -40.5t94 -67.5l123 82l49 -80l-102 -68q41 -47 78 -110.5t65.5 -146.5t45 -187.5t16.5 -233.5 q0 -176 -30 -296t-81 -194.5t-119.5 -107.5t-148.5 -33q-98 0 -170 39t-117 110t-66.5 170t-21.5 220zM236 514q0 -215 65.5 -309t167.5 -94q47 0 88 26.5t70.5 84t47 149.5t17.5 223q0 20 -1 50t-3 59.5t-5 56t-5 43.5q-29 53 -88.5 79.5t-118.5 26.5q-61 0 -105 -28.5 t-74 -80.5t-43 -125t-13 -161z" />
<glyph unicode="&#xf1;" horiz-adv-x="899" d="M121 0v1024h106l27 -109h6q39 55 105.5 94.5t158.5 39.5q66 0 116 -18.5t84 -62.5t51.5 -118t17.5 -186v-664h-148v625q0 154 -36 222t-128 68q-82 0 -135 -49t-78 -121v-745h-147zM205 1337q55 70 98 95.5t78 25.5q29 0 53.5 -12t48 -25.5t45 -26t46.5 -12.5 q18 0 37.5 9.5t41.5 33.5l47 -77q-49 -59 -86.5 -82t-70.5 -23q-29 0 -53.5 11.5t-48 25.5t-46 25.5t-47.5 11.5q-23 0 -45 -11.5t-49 -39.5z" />
<glyph unicode="&#xf2;" horiz-adv-x="884" d="M76 512q0 276 95 406.5t271 130.5q188 0 277.5 -133.5t89.5 -403.5q0 -279 -96.5 -408t-270.5 -129q-188 0 -277 133.5t-89 403.5zM229 512q0 -90 11.5 -164t37 -127t66.5 -82.5t98 -29.5q106 0 159.5 95t53.5 308q0 88 -11 163t-36.5 128t-66.5 82.5t-99 29.5 q-104 0 -158.5 -96t-54.5 -307zM244 1432v43h170l106 -306h-84z" />
<glyph unicode="&#xf3;" horiz-adv-x="884" d="M76 512q0 276 95 406.5t271 130.5q188 0 277.5 -133.5t89.5 -403.5q0 -279 -96.5 -408t-270.5 -129q-188 0 -277 133.5t-89 403.5zM229 512q0 -90 11.5 -164t37 -127t66.5 -82.5t98 -29.5q106 0 159.5 95t53.5 308q0 88 -11 163t-36.5 128t-66.5 82.5t-99 29.5 q-104 0 -158.5 -96t-54.5 -307zM369 1169l96 306h160v-43l-168 -263h-88z" />
<glyph unicode="&#xf4;" horiz-adv-x="884" d="M76 512q0 276 95 406.5t271 130.5q188 0 277.5 -133.5t89.5 -403.5q0 -279 -96.5 -408t-270.5 -129q-188 0 -277 133.5t-89 403.5zM229 512q0 -90 11.5 -164t37 -127t66.5 -82.5t98 -29.5q106 0 159.5 95t53.5 308q0 88 -11 163t-36.5 128t-66.5 82.5t-99 29.5 q-104 0 -158.5 -96t-54.5 -307zM219 1126l203 373h71l183 -373h-129l-66 136l-33 118l-35 -118l-73 -136h-121z" />
<glyph unicode="&#xf5;" horiz-adv-x="884" d="M76 512q0 276 95 406.5t271 130.5q188 0 277.5 -133.5t89.5 -403.5q0 -279 -96.5 -408t-270.5 -129q-188 0 -277 133.5t-89 403.5zM229 512q0 -90 11.5 -164t37 -127t66.5 -82.5t98 -29.5q106 0 159.5 95t53.5 308q0 88 -11 163t-36.5 128t-66.5 82.5t-99 29.5 q-104 0 -158.5 -96t-54.5 -307zM197 1337q55 70 98 95.5t78 25.5q29 0 53.5 -12t48 -25.5t45 -26t46.5 -12.5q18 0 37.5 9.5t41.5 33.5l47 -77q-49 -59 -86.5 -82t-70.5 -23q-29 0 -53.5 11.5t-48 25.5t-46 25.5t-47.5 11.5q-23 0 -45 -11.5t-49 -39.5z" />
<glyph unicode="&#xf6;" horiz-adv-x="884" d="M76 512q0 276 95 406.5t271 130.5q188 0 277.5 -133.5t89.5 -403.5q0 -279 -96.5 -408t-270.5 -129q-188 0 -277 133.5t-89 403.5zM229 512q0 -90 11.5 -164t37 -127t66.5 -82.5t98 -29.5q106 0 159.5 95t53.5 308q0 88 -11 163t-36.5 128t-66.5 82.5t-99 29.5 q-104 0 -158.5 -96t-54.5 -307zM193 1337q0 47 23.5 74t64.5 27t64.5 -27t23.5 -74q0 -43 -23.5 -69.5t-64.5 -26.5t-64.5 26.5t-23.5 69.5zM519 1337q0 47 23.5 74t64.5 27t64.5 -27t23.5 -74q0 -43 -23.5 -69.5t-64.5 -26.5t-64.5 26.5t-23.5 69.5z" />
<glyph unicode="&#xf7;" horiz-adv-x="849" d="M72 627v137h704v-137h-704zM322 350q0 57 27.5 86t74.5 29t74.5 -28.5t27.5 -86.5q0 -59 -27.5 -88t-74.5 -29t-74.5 29t-27.5 88zM322 1040q0 57 27.5 86t74.5 29t74.5 -28.5t27.5 -86.5q0 -59 -27.5 -87.5t-74.5 -28.5t-74.5 28.5t-27.5 87.5z" />
<glyph unicode="&#xf8;" horiz-adv-x="892" d="M82 512q0 268 95 402.5t272 134.5q119 0 200 -60l39 66l100 -62l-55 -98q41 -68 61.5 -164t20.5 -219q0 -272 -95 -404.5t-271 -132.5q-127 0 -211 66l-43 -70l-101 66l62 104q-74 135 -74 371zM236 512q0 -61 4 -116.5t16 -102.5l322 563q-25 29 -57 44t-72 15 q-104 0 -158.5 -96t-54.5 -307zM309 178q53 -70 140 -69q106 0 159.5 96t53.5 307q0 66 -5.5 124t-19.5 105z" />
<glyph unicode="&#xf9;" horiz-adv-x="888" d="M106 360v664h148v-627q0 -156 31.5 -222t115.5 -66q43 0 77 17t60.5 46t47 65.5t32.5 75.5v711h148v-733q0 -74 5 -153t15 -138h-104l-37 143h-6q-35 -68 -100.5 -118t-163.5 -50q-66 0 -115 16.5t-84 59.5t-52.5 117.5t-17.5 191.5zM234 1432v43h170l106 -306h-84z" />
<glyph unicode="&#xfa;" horiz-adv-x="888" d="M106 360v664h148v-627q0 -156 31.5 -222t115.5 -66q43 0 77 17t60.5 46t47 65.5t32.5 75.5v711h148v-733q0 -74 5 -153t15 -138h-104l-37 143h-6q-35 -68 -100.5 -118t-163.5 -50q-66 0 -115 16.5t-84 59.5t-52.5 117.5t-17.5 191.5zM367 1169l96 306h160v-43l-168 -263 h-88z" />
<glyph unicode="&#xfb;" horiz-adv-x="888" d="M106 360v664h148v-627q0 -156 31.5 -222t115.5 -66q43 0 77 17t60.5 46t47 65.5t32.5 75.5v711h148v-733q0 -74 5 -153t15 -138h-104l-37 143h-6q-35 -68 -100.5 -118t-163.5 -50q-66 0 -115 16.5t-84 59.5t-52.5 117.5t-17.5 191.5zM213 1126l203 373h71l183 -373h-129 l-66 136l-33 118l-35 -118l-73 -136h-121z" />
<glyph unicode="&#xfc;" horiz-adv-x="888" d="M106 360v664h148v-627q0 -156 31.5 -222t115.5 -66q43 0 77 17t60.5 46t47 65.5t32.5 75.5v711h148v-733q0 -74 5 -153t15 -138h-104l-37 143h-6q-35 -68 -100.5 -118t-163.5 -50q-66 0 -115 16.5t-84 59.5t-52.5 117.5t-17.5 191.5zM195 1337q0 47 23.5 74t64.5 27 t64.5 -27t23.5 -74q0 -43 -23.5 -69.5t-64.5 -26.5t-64.5 26.5t-23.5 69.5zM521 1337q0 47 23.5 74t64.5 27t64.5 -27t23.5 -74q0 -43 -23.5 -69.5t-64.5 -26.5t-64.5 26.5t-23.5 69.5z" />
<glyph unicode="&#xfd;" horiz-adv-x="770" d="M14 1024h168l193 -662l43 -198h10l31 198l155 662h150l-244 -920q-29 -111 -57.5 -207t-62 -166.5t-75.5 -110.5t-100 -40q-57 0 -100 19l25 139q29 -10 57.5 -4t54 34.5t47 85t37.5 146.5zM352 1169l96 306h160v-43l-168 -263h-88z" />
<glyph unicode="&#xfe;" horiz-adv-x="890" d="M121 -410v1844h147v-492h6q33 49 87.5 78t132.5 29q162 0 241.5 -121t79.5 -396q0 -129 -26.5 -232t-75.5 -175t-119 -111t-156 -39q-59 0 -97 8.5t-73 26.5v-420h-147zM268 160q29 -25 65 -38t95 -13q109 0 171.5 110.5t62.5 315.5q0 86 -11.5 155.5t-35 119.5 t-62.5 77.5t-94 27.5q-72 0 -121 -46t-70 -128v-581z" />
<glyph unicode="&#xff;" horiz-adv-x="770" d="M14 1024h168l193 -662l43 -198h10l31 198l155 662h150l-244 -920q-29 -111 -57.5 -207t-62 -166.5t-75.5 -110.5t-100 -40q-57 0 -100 19l25 139q29 -10 57.5 -4t54 34.5t47 85t37.5 146.5zM135 1337q0 47 23.5 74t64.5 27t64.5 -27t23.5 -74q0 -43 -23.5 -69.5 t-64.5 -26.5t-64.5 26.5t-23.5 69.5zM461 1337q0 47 23.5 74t64.5 27t64.5 -27t23.5 -74q0 -43 -23.5 -69.5t-64.5 -26.5t-64.5 26.5t-23.5 69.5z" />
<glyph unicode="&#x131;" horiz-adv-x="444" d="M147 0v1024h148v-1024h-148z" />
<glyph unicode="&#x152;" horiz-adv-x="1531" d="M88 717q0 362 120 551.5t351 189.5q74 0 124 -7t101 -17h637v-142h-483v-485h442v-141h-442v-525h494v-141h-648q-41 -10 -98 -17.5t-127 -7.5q-123 0 -212 52.5t-146.5 149.5t-85 233.5t-27.5 306.5zM250 717q0 -121 17.5 -229.5t56 -190.5t100 -131t149.5 -49 q47 0 96.5 4t114.5 29v1126q-45 23 -102 32t-119 9q-150 0 -231.5 -147.5t-81.5 -452.5z" />
<glyph unicode="&#x153;" horiz-adv-x="1417" d="M76 512q0 262 95 399.5t271 137.5q104 0 175 -46.5t112 -130.5q41 78 113.5 127.5t173.5 49.5q57 0 113.5 -15.5t101.5 -58.5t72.5 -121t27.5 -203q0 -35 -3 -73.5t-7 -81.5h-524q2 -178 62.5 -284t199.5 -106q55 0 112.5 23t85.5 51l54 -108q-49 -47 -128 -72t-165 -25 q-102 0 -176 49.5t-115 129.5q-88 -178 -287 -179q-186 0 -275 139.5t-89 397.5zM229 512q0 -80 11.5 -152.5t37 -128t66.5 -89t98 -33.5q211 0 211 403q0 80 -11 152.5t-35.5 129t-65.5 89t-99 32.5q-213 0 -213 -403zM801 616h389q4 154 -43 228t-131 74q-92 0 -148.5 -74 t-66.5 -228z" />
<glyph unicode="&#x178;" horiz-adv-x="931" d="M10 1434h180l259 -625l26 -125h4l27 129l250 621h166l-377 -863v-571h-154v569zM215 1626q0 43 25.5 69.5t70.5 26.5q43 0 68.5 -26.5t25.5 -69.5t-25.5 -68.5t-68.5 -25.5q-45 0 -70.5 25.5t-25.5 68.5zM538 1626q0 43 26 69.5t69 26.5q45 0 70.5 -26.5t25.5 -69.5 t-25.5 -68.5t-70.5 -25.5q-43 0 -69 25.5t-26 68.5z" />
<glyph unicode="&#x2c6;" horiz-adv-x="702" d="M123 1126l203 373h71l183 -373h-129l-66 136l-33 118l-35 -118l-73 -136h-121z" />
<glyph unicode="&#x2da;" horiz-adv-x="583" d="M123 1317q0 86 45 134t123 48q74 0 122 -43t48 -139q0 -82 -46 -131t-124 -49t-123 46t-45 134zM221 1317q0 -47 20.5 -70.5t49.5 -23.5q33 0 52 22.5t19 71.5t-21.5 72.5t-49.5 23.5q-29 0 -49.5 -22.5t-20.5 -73.5z" />
<glyph unicode="&#x2dc;" horiz-adv-x="741" d="M123 1337q55 70 98 95.5t78 25.5q29 0 53.5 -12t48 -25.5t45 -26t46.5 -12.5q18 0 37.5 9.5t41.5 33.5l47 -77q-49 -59 -86.5 -82t-70.5 -23q-29 0 -53.5 11.5t-48 25.5t-46 25.5t-47.5 11.5q-23 0 -45 -11.5t-49 -39.5z" />
<glyph unicode="&#x4d4;" horiz-adv-x="1398" d="M-37 0l686 1434h641v-142h-485v-485h444v-141h-444v-525h493v-141h-647v408h-338l-184 -408h-166zM381 545h270v661h-6l-53 -200z" />
<glyph unicode="&#x4d5;" horiz-adv-x="1314" d="M59 279q0 90 30 150t83 96t127 51.5t164 15.5q23 0 45 -1t45 -3q6 63 6 112q0 117 -35 163t-127 46q-57 0 -126.5 -20.5t-116.5 -52.5l-45 114q63 47 148 68.5t177 21.5q172 0 223 -131q41 74 114 107t144 33q57 0 113.5 -15.5t102 -59.5t73 -123t27.5 -204 q0 -35 -3 -73.5t-7 -81.5h-519q2 -188 57.5 -285.5t194.5 -97.5q57 0 112.5 20.5t84.5 44.5l53 -108q-51 -41 -124.5 -66t-164.5 -25q-102 0 -182 44t-119 131h-12q-41 -72 -111.5 -119t-175.5 -47q-115 0 -185.5 80t-70.5 215zM213 295q0 -72 39 -125t102 -53q43 0 77 13 t58.5 34.5t41 47.5t24.5 52v207q-20 2 -40.5 3t-41.5 1q-49 0 -96 -8t-84 -28.5t-58.5 -55.5t-21.5 -88zM702 612h385q4 154 -42 228.5t-130 74.5q-92 0 -147.5 -73.5t-65.5 -229.5z" />
<glyph unicode="&#x2000;" horiz-adv-x="890" />
<glyph unicode="&#x2001;" horiz-adv-x="1781" />
<glyph unicode="&#x2002;" horiz-adv-x="890" />
<glyph unicode="&#x2003;" horiz-adv-x="1781" />
<glyph unicode="&#x2004;" horiz-adv-x="593" />
<glyph unicode="&#x2005;" horiz-adv-x="444" />
<glyph unicode="&#x2006;" horiz-adv-x="296" />
<glyph unicode="&#x2007;" horiz-adv-x="296" />
<glyph unicode="&#x2008;" horiz-adv-x="221" />
<glyph unicode="&#x2009;" horiz-adv-x="356" />
<glyph unicode="&#x200a;" horiz-adv-x="98" />
<glyph unicode="&#x2010;" horiz-adv-x="595" d="M96 514v141h404v-141h-404z" />
<glyph unicode="&#x2011;" horiz-adv-x="595" d="M96 514v141h404v-141h-404z" />
<glyph unicode="&#x2012;" horiz-adv-x="595" d="M96 514v141h404v-141h-404z" />
<glyph unicode="&#x2013;" horiz-adv-x="1085" d="M190 518v141h705v-141h-705z" />
<glyph unicode="&#x2014;" horiz-adv-x="1355" d="M195 518v141h966v-141h-966z" />
<glyph unicode="&#x2018;" horiz-adv-x="331" d="M63 1309q0 68 17.5 117t42 83.5t50.5 55t44 30.5l47 -67q-35 -25 -60.5 -66t-23.5 -96q39 6 62.5 -21.5t23.5 -74.5t-25.5 -75t-66.5 -28q-47 0 -79 35t-32 107z" />
<glyph unicode="&#x2019;" horiz-adv-x="331" d="M63 1350q0 47 27 73.5t68 26.5q49 0 79.5 -34t30.5 -103q0 -66 -16 -115t-40 -83t-50.5 -55.5t-44.5 -31.5l-47 62q35 23 60.5 64.5t23.5 96.5q-37 -6 -64 21t-27 78z" />
<glyph unicode="&#x201a;" horiz-adv-x="331" d="M63 103q0 47 27 73.5t68 26.5q49 0 79.5 -34t30.5 -103q0 -66 -16 -115t-40 -83t-50.5 -55.5t-44.5 -31.5l-47 62q35 23 60.5 64.5t23.5 96.5q-37 -6 -64 21t-27 78z" />
<glyph unicode="&#x201c;" horiz-adv-x="589" d="M321 1309q0 68 17.5 117t42 83.5t50.5 55t44 30.5l47 -67q-35 -25 -60.5 -66t-23.5 -96q39 6 62.5 -21.5t23.5 -74.5t-25.5 -75t-66.5 -28q-47 0 -79 35t-32 107zM63 1309q0 68 17.5 117t42 83.5t50.5 55t44 30.5l47 -67q-35 -25 -60.5 -66t-23.5 -96q39 6 62.5 -21.5 t23.5 -74.5t-25.5 -75t-66.5 -28q-47 0 -79 35t-32 107z" />
<glyph unicode="&#x201d;" horiz-adv-x="589" d="M321 1350q0 47 27 73.5t68 26.5q49 0 79.5 -34t30.5 -103q0 -66 -16 -115t-40 -83t-50.5 -55.5t-44.5 -31.5l-47 62q35 23 60.5 64.5t23.5 96.5q-37 -6 -64 21t-27 78zM63 1350q0 47 27 73.5t68 26.5q49 0 79.5 -34t30.5 -103q0 -66 -16 -115t-40 -83t-50.5 -55.5 t-44.5 -31.5l-47 62q35 23 60.5 64.5t23.5 96.5q-37 -6 -64 21t-27 78z" />
<glyph unicode="&#x201e;" horiz-adv-x="589" d="M321 103q0 47 27 73.5t68 26.5q49 0 79.5 -34t30.5 -103q0 -66 -16 -115t-40 -83t-50.5 -55.5t-44.5 -31.5l-47 62q35 23 60.5 64.5t23.5 96.5q-37 -6 -64 21t-27 78zM63 103q0 47 27 73.5t68 26.5q49 0 79.5 -34t30.5 -103q0 -66 -16 -115t-40 -83t-50.5 -55.5 t-44.5 -31.5l-47 62q35 23 60.5 64.5t23.5 96.5q-37 -6 -64 21t-27 78z" />
<glyph unicode="&#x2022;" horiz-adv-x="743" d="M139 637q0 129 64.5 207t169.5 78q102 0 167.5 -75t65.5 -210t-65.5 -210t-167.5 -75q-104 0 -169 75t-65 210z" />
<glyph unicode="&#x2026;" horiz-adv-x="1345" d="M1041 92q0 57 27.5 86t74.5 29t75 -28.5t28 -86.5q0 -59 -28 -88t-75 -29t-74.5 29t-27.5 88zM582 92q0 57 27.5 86t74.5 29t75 -28.5t28 -86.5q0 -59 -28 -88t-75 -29t-74.5 29t-27.5 88zM125 92q0 57 27.5 86t74.5 29t75 -28.5t28 -86.5q0 -59 -28 -88t-75 -29 t-74.5 29t-27.5 88z" />
<glyph unicode="&#x202f;" horiz-adv-x="356" />
<glyph unicode="&#x2039;" horiz-adv-x="495" d="M61 530l265 471l102 -67l-168 -318l-78 -84l78 -73l178 -312l-102 -69z" />
<glyph unicode="&#x203a;" horiz-adv-x="495" d="M57 930l105 71l272 -452l-262 -471l-102 67l166 318l79 84l-79 74z" />
<glyph unicode="&#x2044;" horiz-adv-x="305" d="M-291 33l789 1427l100 -55l-786 -1430z" />
<glyph unicode="&#x205f;" horiz-adv-x="444" />
<glyph unicode="&#x2081;" horiz-adv-x="675" d="M92 459l256 211h84v-758h154v-117h-457v117h172v526l12 74l-45 -57l-123 -82z" />
<glyph unicode="&#x2082;" horiz-adv-x="675" d="M90 -139q43 43 99.5 109.5t107.5 142t86 155.5t35 152q0 61 -32 94t-79 33q-45 0 -87 -14.5t-70 -34.5l-41 106q41 33 101 49.5t120 16.5q104 0 160.5 -59.5t56.5 -170.5q0 -66 -17.5 -128t-47 -122.5t-69.5 -119t-83 -115.5l-76 -66v-4l94 31h230v-121h-488v66z" />
<glyph unicode="&#x2083;" horiz-adv-x="675" d="M117 -182l26 114q31 -16 67 -25t79 -9q78 0 117.5 42t37.5 117q2 66 -33.5 107t-119.5 41h-90v47l157 244l60 55l-84 -12h-215v116h432v-65l-168 -258l-43 -35v-6l41 6q92 0 144.5 -64.5t49.5 -175.5q2 -125 -74.5 -200.5t-199.5 -75.5q-59 0 -104 10.5t-80 26.5z" />
<glyph unicode="&#x2084;" horiz-adv-x="675" d="M49 -12v69l371 615h92v-570h133v-114h-133v-197h-125v197h-338zM180 94l84 8h123v256l14 109h-8l-37 -102l-120 -209z" />
<glyph unicode="&#x20ac;" d="M25 526l32 127h88v64v41q0 25 2 41h-122l32 129h103q20 150 63 248t104.5 160.5t136.5 92t159 29.5t144 -11t107 -34l-40 -135q-39 18 -88.5 28.5t-118.5 10.5q-55 0 -104.5 -20.5t-90.5 -64.5t-71.5 -116t-47.5 -188h457l-31 -129h-438q-2 -16 -2 -41v-41v-33 q0 -12 2 -31h406l-31 -127h-365q29 -215 115 -312t221 -97q129 0 209 57l35 -123q-49 -41 -123 -58.5t-150 -17.5q-188 0 -309 129t-153 422h-131z" />
<glyph unicode="&#x2122;" horiz-adv-x="1497" d="M70 1300v134h583v-134h-217v-604h-147v604h-219zM717 696v738h145l168 -342l45 -119l49 123l154 338h147v-738h-137v342l21 211h-9l-63 -174l-137 -287h-70l-139 285l-60 176h-8l27 -209v-344h-133z" />
<glyph unicode="&#x2212;" horiz-adv-x="849" d="M72 627v137h704v-137h-704z" />
<glyph unicode="&#xe000;" horiz-adv-x="1025" d="M0 1025h1025v-1025h-1025v1025z" />
<glyph unicode="&#xf408;" horiz-adv-x="776" d="M123 1530v45l219 207h102l209 -209v-43h-135l-96 100l-31 72l-31 -70l-106 -102h-131z" />
<glyph unicode="&#xf40d;" horiz-adv-x="808" d="M123 1597q57 70 105 95.5t91 25.5q33 0 63 -10t57.5 -21.5t53 -21.5t52.5 -10q23 0 44 8t44 33l53 -76q-49 -57 -92 -77.5t-80 -20.5q-31 0 -59.5 10t-56 21.5t-54.5 21.5t-55 10q-29 0 -56.5 -12t-60.5 -47z" />
<glyph unicode="&#xf662;" horiz-adv-x="675" d="M98 1239l254 209h84v-875h-131v646l12 73l-45 -59l-120 -84z" />
<glyph unicode="&#xf6c9;" horiz-adv-x="638" d="M123 1540l190 242h203v-43l-268 -199h-125z" />
<glyph unicode="&#xf6cb;" horiz-adv-x="759" d="M123 1626q0 43 25.5 69.5t70.5 26.5q43 0 68.5 -26.5t25.5 -69.5t-25.5 -68.5t-68.5 -25.5q-45 0 -70.5 25.5t-25.5 68.5zM446 1626q0 43 26 69.5t69 26.5q45 0 70.5 -26.5t25.5 -69.5t-25.5 -68.5t-70.5 -25.5q-43 0 -69 25.5t-26 68.5z" />
<glyph unicode="&#xf6ce;" horiz-adv-x="638" d="M123 1739v43h203l190 -242h-133z" />
<glyph unicode="&#xfb01;" horiz-adv-x="894" d="M33 891v133h125v57q0 193 77.5 280t227.5 87q100 0 175 -19.5t122 -44.5l-47 -122q-49 29 -109.5 41t-126.5 12q-57 0 -91 -19.5t-52.5 -57.5t-23.5 -92t-5 -122h465v-1024h-147v891h-318v-891h-147v891h-125z" />
<glyph unicode="&#xfb02;" horiz-adv-x="960" d="M33 891v133h125v57q0 193 68.5 285t230.5 92q33 0 77 -3t87 -8t80.5 -11t60.5 -15v-1188q0 -68 19.5 -96t54.5 -28q45 0 102 22l10 -119q-27 -16 -73 -26.5t-89 -10.5q-78 0 -125 49.5t-47 168.5v1116q-23 4 -66.5 10t-86.5 6q-53 0 -84 -20.5t-47.5 -58.5t-20.5 -94 t-4 -128h162v-133h-162v-891h-147v891h-125z" />
<glyph unicode="&#xfb03;" horiz-adv-x="1497" d="M1172 1335q0 49 27.5 80t72.5 31t75 -30t30 -81q0 -49 -30 -76.5t-75 -27.5t-72.5 28.5t-27.5 75.5zM1198 0v1024h148v-1024h-148zM559 891v133h125v57q0 193 55 279t188 86q53 0 96.5 -6t88.5 -27l-37 -127q-37 16 -68.5 21.5t-60.5 5.5q-41 0 -63.5 -16.5t-34 -51.5 t-14.5 -89t-3 -132h213v-133h-213v-891h-147v891h-125zM33 891v133h125v57q0 193 55 279t188 86q53 0 96.5 -6t88.5 -27l-37 -127q-37 16 -68.5 21.5t-60.5 5.5q-41 0 -63.5 -16.5t-34 -51.5t-14.5 -89t-3 -132h213v-133h-213v-891h-147v891h-125z" />
<glyph unicode="&#xfb04;" horiz-adv-x="1529" d="M1184 195v1239h148v-1190q0 -72 19 -102.5t54 -30.5q43 0 101 22l14 -119q-27 -16 -75 -26.5t-87 -10.5q-78 0 -126 48.5t-48 169.5zM559 891v133h125v57q0 193 55 279t188 86q53 0 96.5 -6t88.5 -27l-37 -127q-37 16 -68.5 21.5t-60.5 5.5q-41 0 -63.5 -16.5t-34 -51.5 t-14.5 -89t-3 -132h213v-133h-213v-891h-147v891h-125zM33 891v133h125v57q0 193 55 279t188 86q53 0 96.5 -6t88.5 -27l-37 -127q-37 16 -68.5 21.5t-60.5 5.5q-41 0 -63.5 -16.5t-34 -51.5t-14.5 -89t-3 -132h213v-133h-213v-891h-147v891h-125z" />
<glyph horiz-adv-x="303" d="M-334 37l873 1423l96 -61l-873 -1424z" />
</font>
</defs>
</svg>
