<?xml version="1.0" standalone="no"?>
<!DOCTYPE svg PUBLIC "-//W3C//DTD SVG 1.1//EN" "http://www.w3.org/Graphics/SVG/1.1/DTD/svg11.dtd" >
<svg xmlns="http://www.w3.org/2000/svg">
<metadata>
This is a custom SVG webfont generated by Font Squirrel.
Copyright   : Copyright  2009 ParaType Ltd All rights reserved
Designer    : AKorolkova OUmpeleva VYefimov
Foundry     : ParaType Ltd
Foundry URL : httpwwwparatypecom
</metadata>
<defs>
<font id="PTSansNarrowBold" horiz-adv-x="978" >
<font-face units-per-em="2048" ascent="1638" descent="-410" />
<missing-glyph horiz-adv-x="419" />
<glyph unicode=" "  horiz-adv-x="419" />
<glyph unicode="&#x09;" horiz-adv-x="419" />
<glyph unicode="&#xa0;" horiz-adv-x="419" />
<glyph unicode="!" horiz-adv-x="514" d="M147 133q0 76 40 115t106 39q72 0 110.5 -39t38.5 -115q0 -74 -40 -115t-109 -41q-68 0 -107 41t-39 115zM170 760v674h252v-674l-49 -334h-154z" />
<glyph unicode="&#x22;" horiz-adv-x="718" d="M150 991v443h210l-63 -443h-147zM424 991v443h211l-64 -443h-147z" />
<glyph unicode="#" d="M31 420l43 194h119l45 226h-123l43 194h116l60 295h201l-60 -295h141l60 295h198l-59 -295h121l-45 -194h-113l-45 -226h119l-45 -194h-111l-61 -316h-201l62 316h-142l-61 -316h-199l62 316h-125zM393 614h142l43 226h-142z" />
<glyph unicode="$" d="M111 1075q0 160 77.5 253t208.5 122v188h195v-180q72 -4 127 -19.5t104 -39.5l-67 -213q-31 16 -72 29.5t-92 19.5v-404q53 -33 105.5 -70.5t94.5 -88.5t68.5 -117t26.5 -154q0 -176 -80 -278.5t-215 -134.5v-193h-195v178q-98 4 -167.5 23.5t-110.5 46.5l67 219 q31 -23 85.5 -41t125.5 -26v450q-53 31 -104 68t-91 87t-65.5 116.5t-25.5 158.5zM354 1092q0 -63 37 -107.5t92 -83.5v338q-74 -8 -101.5 -52t-27.5 -95zM508 197q66 12 98.5 60t32.5 118t-37 116t-94 84v-378z" />
<glyph unicode="%" horiz-adv-x="1474" d="M84 1110q0 94 22.5 159.5t63.5 107.5t97.5 61.5t123.5 19.5q68 0 124.5 -17.5t97.5 -58.5t64.5 -107.5t23.5 -164.5t-23.5 -164.5t-64.5 -107.5t-97.5 -58.5t-124.5 -17.5t-124 17.5t-97 58.5t-63.5 107.5t-22.5 164.5zM301 1110q0 -98 21.5 -138t68.5 -40q25 0 42.5 7 t28.5 27.5t16.5 55.5t5.5 88q0 104 -22.5 141t-70.5 37q-47 0 -68.5 -37t-21.5 -141zM796 350q0 94 22.5 159.5t63.5 107.5t97.5 61.5t123.5 19.5q68 0 124.5 -17.5t97.5 -58.5t64.5 -107.5t23.5 -164.5t-23.5 -164.5t-64.5 -107.5t-97.5 -58.5t-124.5 -17.5t-124 17.5 t-97 58.5t-63.5 107.5t-22.5 164.5zM1013 350q0 -98 21.5 -138t68.5 -40q25 0 42.5 7t28.5 27.5t16.5 55.5t5.5 88q0 104 -22.5 141t-70.5 37q-47 0 -68.5 -37t-21.5 -141zM164 92l1014 1370l143 -119l-1012 -1372z" />
<glyph unicode="&#x26;" horiz-adv-x="1374" d="M143 397q0 78 21.5 147.5t60.5 131t91.5 114t111.5 93.5q-43 68 -70.5 139.5t-27.5 148.5q0 51 16 103.5t53 94.5t95.5 67.5t142.5 25.5q80 0 137 -21.5t93 -57t52.5 -83t16.5 -98.5q0 -86 -51 -177t-168 -177q51 -96 109.5 -193.5t129.5 -187.5q39 51 66 121.5t49 146.5 l182 -84q-10 -37 -28.5 -84t-41 -93t-45 -88t-42.5 -71q51 -59 95 -95t87 -62l-125 -187q-55 27 -107.5 70t-101.5 100q-61 -70 -150 -120t-223 -50q-92 0 -170.5 28t-136 82t-89.5 134t-32 182zM387 416q0 -104 58.5 -162.5t152.5 -58.5q66 0 121 33.5t84 74.5 q-82 109 -148.5 212t-113.5 202q-72 -72 -113 -140.5t-41 -160.5zM573 1159q0 -90 60 -184q59 51 85.5 97t26.5 87q0 47 -21.5 77t-66.5 30q-41 0 -62.5 -30t-21.5 -77z" />
<glyph unicode="'" horiz-adv-x="444" d="M150 991v443h210l-63 -443h-147z" />
<glyph unicode="(" horiz-adv-x="569" d="M98 498q0 113 15.5 237.5t49.5 250.5t88 247t134 225l164 -92q-55 -96 -94 -203.5t-64.5 -220.5t-37 -226.5t-11.5 -217.5q0 -98 12.5 -211t37 -226.5t64.5 -220t95 -192.5l-170 -99q-78 98 -131 216t-87 242t-49.5 250t-15.5 241z" />
<glyph unicode=")" horiz-adv-x="569" d="M18 -356q61 102 101.5 210.5t64 219t33.5 221.5t10 215q0 98 -12 212t-38.5 227.5t-65.5 220t-93 194.5l170 94q78 -98 131.5 -216t87 -241.5t49 -249.5t15.5 -241q0 -113 -15.5 -238t-49 -250.5t-88 -246.5t-134.5 -226z" />
<glyph unicode="*" horiz-adv-x="661" d="M59 1118v146h111l102 -33l-92 84l-51 96l123 72l49 -88l27 -115l22 106l53 97l121 -70l-55 -100l-86 -82l113 31h106v-144h-102l-107 33l92 -92l45 -82l-122 -72l-50 88l-32 125l-21 -112l-53 -97l-123 72l55 98l80 70l-96 -31h-109z" />
<glyph unicode="+" horiz-adv-x="909" d="M78 588v217h264v299h225v-299h264v-217h-264v-301h-225v301h-264z" />
<glyph unicode="," horiz-adv-x="442" d="M57 -203q47 25 84 79t41 110q-43 -2 -78.5 33.5t-35.5 113.5q0 70 41 110t102 40q78 0 120 -55.5t42 -153.5q0 -90 -25.5 -155.5t-62.5 -110t-79 -71t-73 -38.5z" />
<glyph unicode="-" horiz-adv-x="610" d="M92 471v234h426v-234h-426z" />
<glyph unicode="." horiz-adv-x="434" d="M70 133q0 76 40 115t105 39q72 0 111 -39t39 -115q0 -74 -40 -115t-110 -41q-68 0 -106.5 41t-38.5 115z" />
<glyph unicode="/" horiz-adv-x="714" d="M-37 -215l602 1673l187 -72l-600 -1673z" />
<glyph unicode="0" d="M72 719q0 201 27.5 342t80.5 230t131 130t178 41q106 0 185.5 -41t131.5 -130t77.5 -230t25.5 -342q0 -203 -28.5 -345.5t-82 -231.5t-131 -130t-178.5 -41q-106 0 -185 42t-130 133.5t-76.5 232.5t-25.5 340zM315 719q0 -274 41 -402.5t136 -128.5q45 0 78.5 29t54 92.5 t31 163.5t10.5 246q0 272 -40 399t-137 127q-47 0 -79.5 -28.5t-53 -92t-31 -164t-10.5 -241.5z" />
<glyph unicode="1" d="M106 1073l396 385h143v-1241h229v-217h-696v217h234v805l26 139l-84 -121l-135 -104z" />
<glyph unicode="2" d="M121 1337q68 57 153.5 91t202.5 34q74 0 137.5 -23.5t109.5 -70.5t72.5 -116.5t26.5 -161.5q0 -106 -30.5 -218t-78.5 -218.5t-105.5 -203t-112.5 -169.5l-90 -84v-11l122 31h318v-217h-719v141q43 53 93 122t100.5 145.5t97.5 159.5t83 166t57.5 163t16.5 150 q4 86 -36.5 139t-128.5 53q-51 0 -104.5 -23.5t-90.5 -56.5z" />
<glyph unicode="3" d="M133 35l66 205q43 -23 94 -37.5t117 -14.5q100 0 152 68t52 172q0 231 -229 231h-121v140l203 344l98 92l-135 -18h-280v217h655v-146l-238 -387l-75 -55v-10l75 12q57 -4 110.5 -30.5t93.5 -76t63.5 -123t23.5 -174.5q0 -121 -33.5 -209t-92 -147t-137.5 -88t-169 -29 q-76 0 -160 16.5t-133 47.5z" />
<glyph unicode="4" d="M35 399v152l524 893h213v-836h180v-209h-180v-399h-231v399h-506zM250 592l104 16h187v318l22 184h-8l-61 -166l-162 -274z" />
<glyph unicode="5" d="M117 27l63 206q76 -39 195 -38q111 0 168 71.5t57 184.5q0 129 -67.5 186t-194.5 57l-133 -8v748h596v-238h-387v-293l67 8q166 -6 264.5 -122.5t98.5 -327.5q0 -121 -35 -213t-95.5 -153.5t-144.5 -92.5t-182 -31q-74 0 -148.5 15.5t-121.5 40.5z" />
<glyph unicode="6" d="M88 514q0 209 50 374t135 283.5t195 191.5t230 99l62 -198q-80 -20 -149.5 -65.5t-125 -109t-93.5 -144.5t-56 -171q35 49 88 80t131 31q74 0 136.5 -27t108.5 -82t71.5 -138t25.5 -194q0 -109 -29.5 -196.5t-82 -149t-125 -94.5t-158.5 -33q-90 0 -166 32t-131 97.5 t-86 169t-31 244.5zM324 459q0 -53 10 -101.5t31.5 -86.5t53.5 -60.5t77 -22.5q74 0 120 62.5t46 179.5q0 125 -42 181.5t-128 56.5q-61 0 -104.5 -35t-61.5 -82q-2 -23 -2 -46v-46z" />
<glyph unicode="7" d="M106 1200v234h777v-78l-465 -1356h-238l387 1120l74 101l-102 -21h-433z" />
<glyph unicode="8" d="M102 344q0 74 16.5 132.5t45.5 104.5t64.5 82.5t76.5 67.5q-80 63 -126 146.5t-46 205.5q0 174 97.5 276.5t267.5 102.5q156 0 252 -90t96 -256q0 -121 -45 -205t-129 -155q102 -72 153.5 -162t51.5 -227q0 -92 -30 -166t-82 -125t-124 -78t-156 -27q-86 0 -155.5 26 t-120.5 73t-79 116.5t-28 157.5zM326 391q0 -86 43 -144.5t120 -58.5q70 0 111 44t41 135q0 51 -16.5 92t-44 72.5t-61.5 58t-66 51.5q-72 -55 -99.5 -119.5t-27.5 -130.5zM367 1079q0 -47 13 -82.5t35.5 -64.5t52.5 -52.5t62 -43.5q47 55 71 109t24 124q0 84 -38 130 t-91 46q-68 0 -98.5 -50t-30.5 -116z" />
<glyph unicode="9" d="M76 985q0 217 103.5 347t297.5 130q190 0 304 -135t114 -405q0 -238 -51 -411t-137 -287.5t-199 -176t-234 -76.5l-57 205q184 37 286.5 161t131.5 300q-39 -51 -84 -71.5t-117 -20.5q-63 0 -127.5 25.5t-116 80t-83 137t-31.5 197.5zM311 999q0 -117 50.5 -177 t127.5 -60q59 0 100.5 21.5t63.5 60.5q4 23 5 47t1 47q0 63 -10 119.5t-32.5 97.5t-57.5 65.5t-84 24.5q-78 0 -121 -65.5t-43 -180.5z" />
<glyph unicode=":" horiz-adv-x="514" d="M158 874q0 76 40 115t105 39q72 0 111 -39t39 -115q0 -74 -40 -115t-110 -41q-68 0 -106.5 41t-38.5 115zM158 133q0 76 40 115t105 39q72 0 111 -39t39 -115q0 -74 -40 -115t-110 -41q-68 0 -106.5 41t-38.5 115z" />
<glyph unicode=";" horiz-adv-x="514" d="M137 -203q47 25 84 79t41 110q-43 -2 -78.5 33.5t-35.5 113.5q0 70 41 110t102 40q78 0 120 -55.5t42 -153.5q0 -90 -25.5 -155.5t-62.5 -110t-79 -71t-73 -38.5zM150 874q0 76 40 115t105 39q72 0 111 -39t39 -115q0 -74 -40 -115t-110 -41q-68 0 -106.5 41t-38.5 115z " />
<glyph unicode="&#x3c;" horiz-adv-x="909" d="M72 584v143l637 455l122 -166l-380 -285l-154 -72l152 -63l391 -281l-123 -165z" />
<glyph unicode="=" horiz-adv-x="909" d="M78 785v217h753v-217h-753zM78 393v217h753v-217h-753z" />
<glyph unicode="&#x3e;" horiz-adv-x="909" d="M70 1018l127 162l641 -432v-144l-633 -450l-127 163l383 283l151 74l-151 61z" />
<glyph unicode="?" horiz-adv-x="782" d="M39 1350q63 47 149 79.5t209 32.5q164 0 257.5 -89t93.5 -251q0 -96 -23 -162.5t-57.5 -116.5t-74.5 -91t-74 -86t-57.5 -102.5t-23.5 -137.5h-207q-8 94 8.5 165t45 125t65.5 97t70 85t54.5 88t21.5 104q0 72 -34 113.5t-112 41.5q-53 0 -112.5 -21.5t-102.5 -58.5z M199 133q0 76 40 115t105 39q72 0 111 -39t39 -115q0 -74 -40 -115t-110 -41q-68 0 -106.5 41t-38.5 115z" />
<glyph unicode="@" horiz-adv-x="1804" d="M117 483q0 215 68.5 385t183 287t264 178.5t313.5 61.5q156 0 292 -46t235.5 -137.5t157 -227.5t57.5 -316q0 -135 -40 -251t-107.5 -199t-159 -130t-193.5 -47q-84 0 -142.5 43t-54.5 149h-6q-47 -78 -113.5 -135t-162.5 -57q-88 0 -149.5 78t-61.5 217q0 137 33.5 258 t91 212t133 144.5t162.5 53.5q57 0 98 -20.5t76 -55.5l51 63h135l-80 -559q-25 -186 59 -186q41 0 81 24.5t72 75.5t51.5 131t19.5 191q0 141 -40 242.5t-112 166t-170 95t-215 30.5q-131 0 -244.5 -52t-196.5 -146.5t-131 -225.5t-48 -291q0 -313 155.5 -477t435.5 -164 q53 0 118 14.5t116 41.5l59 -178q-66 -35 -143.5 -52.5t-175.5 -17.5q-162 0 -302.5 49t-244.5 150.5t-164.5 258t-60.5 371.5zM723 395q0 -72 23.5 -110.5t72.5 -38.5q45 0 91 50t77 112l47 348q-37 43 -96 43q-47 0 -86 -34t-67.5 -90.5t-45 -129t-16.5 -150.5z" />
<glyph unicode="A" horiz-adv-x="1026" d="M-6 0l416 1444h202l418 -1444h-270l-88 324h-338l-84 -324h-256zM389 537h238l-82 333l-33 226h-8l-35 -228z" />
<glyph unicode="B" horiz-adv-x="1003" d="M92 10v1413q68 12 167 21.5t198 9.5q90 0 173 -14.5t145.5 -53t99 -107.5t36.5 -177q0 -53 -11 -105.5t-35.5 -98.5t-64.5 -81t-95 -53v-12q49 -12 93 -37t76.5 -67t52 -102.5t19.5 -142.5q0 -111 -38 -191.5t-102.5 -131.5t-150.5 -75.5t-182 -24.5h-74q-45 0 -97 3 t-107.5 9t-102.5 18zM350 215q16 -6 56 -9t73 -3q86 0 141.5 55t55.5 162q0 68 -18.5 107.5t-49 61t-70.5 28t-83 6.5h-105v-408zM350 825h60q23 0 52.5 3t47.5 8q59 23 101 74t42 132q0 53 -14 90t-39 58.5t-58.5 31t-72.5 9.5q-84 0 -119 -8v-398z" />
<glyph unicode="C" horiz-adv-x="935" d="M59 719q0 217 46.5 360.5t121 228.5t171 119.5t194.5 34.5q100 0 175 -16t122 -37l-51 -227q-39 20 -91.5 31.5t-123.5 11.5q-141 0 -217 -123t-76 -385q0 -113 17.5 -206t55 -160.5t96 -104.5t140.5 -37q72 0 123 19.5t92 45.5l51 -217q-53 -45 -142 -65.5t-177 -20.5 q-111 0 -206 38t-167 126t-113 231.5t-41 352.5z" />
<glyph unicode="D" horiz-adv-x="1095" d="M92 -2v1436q37 6 83 9t94 6t93.5 4t79.5 1q170 0 284 -52t182.5 -147.5t97 -228.5t28.5 -297q0 -150 -27.5 -286t-97 -239.5t-188.5 -165t-299 -61.5q-27 0 -72 2.5t-94 5.5t-94 6t-70 7zM350 223q6 -2 21.5 -3t33 -2t33 -2t21.5 -1q92 0 151.5 43t93 114.5t47 165 t13.5 195.5q0 94 -11.5 182.5t-43 155t-90 106.5t-150.5 40q-33 0 -66.5 -1.5t-52.5 -5.5v-987z" />
<glyph unicode="E" horiz-adv-x="880" d="M92 0v1434h717v-238h-459v-352h416v-238h-416v-368h467v-238h-725z" />
<glyph unicode="F" horiz-adv-x="858" d="M92 0v1434h717v-238h-459v-373h422v-237h-422v-586h-258z" />
<glyph unicode="G" horiz-adv-x="1028" d="M59 717q0 205 45.5 346t120 230t174 129t209.5 40q98 0 179 -17.5t135 -39.5l-54 -223q-41 18 -95 30.5t-132 12.5q-72 0 -130 -29t-98 -90.5t-61.5 -158.5t-21.5 -232q0 -260 78.5 -383t207.5 -123q41 0 79 12t67 39v293l-236 33v155h443v-635q-76 -72 -177.5 -103.5 t-201.5 -31.5q-121 0 -219.5 43t-167 134.5t-106.5 231.5t-38 337z" />
<glyph unicode="H" horiz-adv-x="1091" d="M92 0v1434h258v-590h391v590h258v-1434h-258v606h-391v-606h-258z" />
<glyph unicode="I" horiz-adv-x="487" d="M115 0v1434h258v-1434h-258z" />
<glyph unicode="J" horiz-adv-x="591" d="M-35 23l60 217q43 -27 100 -27q72 0 89 60.5t17 172.5v988h258v-1043q0 -94 -15 -171t-50 -131t-92.5 -84t-143.5 -30q-59 0 -117.5 12.5t-105.5 35.5z" />
<glyph unicode="K" horiz-adv-x="1062" d="M92 0v1434h258v-637l51 24l301 613h291l-327 -605l-97 -75l99 -78l379 -676h-316l-325 614h-56v-614h-258z" />
<glyph unicode="L" horiz-adv-x="868" d="M92 0v1434h258v-1196h504v-238h-762z" />
<glyph unicode="M" horiz-adv-x="1359" d="M92 0v1434h248l299 -621l49 -178h8l47 182l281 617h244v-1434h-258v739l28 275h-10l-76 -246l-233 -504h-86l-248 506l-76 248h-12l39 -277v-741h-244z" />
<glyph unicode="N" horiz-adv-x="1105" d="M92 0v1444h199l411 -721l89 -248h12l-33 244v715h244v-1444h-199l-407 715l-95 251h-10l33 -247v-709h-244z" />
<glyph unicode="O" horiz-adv-x="1132" d="M59 717q0 365 125 555t381 190q133 0 229.5 -52t158 -149.5t91 -235.5t29.5 -308q0 -365 -128 -555.5t-380 -190.5q-135 0 -230 52.5t-156.5 149.5t-90.5 235.5t-29 308.5zM330 717q0 -109 12 -202t41 -160.5t73 -106.5t109 -39q119 0 178.5 121t59.5 387 q0 104 -12.5 197.5t-40 162t-72.5 108.5t-113 40q-235 0 -235 -508z" />
<glyph unicode="P" horiz-adv-x="976" d="M92 0v1419q74 16 162 25.5t176 9.5q94 0 185.5 -17.5t163 -68.5t116.5 -144.5t45 -242.5q0 -135 -38 -229.5t-101.5 -153.5t-146.5 -86t-171 -27h-26q-18 0 -39 1t-40.5 3.5t-27.5 4.5v-494h-258zM350 725q12 -4 46 -7t46 -3q45 0 86 12t73 42t50.5 82t18.5 132 q0 68 -17.5 115t-47.5 74.5t-68.5 40t-81.5 12.5q-63 0 -105 -11v-489z" />
<glyph unicode="Q" horiz-adv-x="1132" d="M59 717q0 365 125 555t381 190q133 0 229.5 -52t158 -149.5t91 -235.5t29.5 -308q0 -365 -128 -555.5t-380 -190.5q-135 0 -230 52.5t-156.5 149.5t-90.5 235.5t-29 308.5zM330 717q0 -109 12 -202t41 -160.5t73 -106.5t109 -39q119 0 178.5 121t59.5 387 q0 104 -12.5 197.5t-40 162t-72.5 108.5t-113 40q-235 0 -235 -508zM338 -76q49 12 98 13q70 0 140.5 -20.5t143.5 -44.5t149.5 -44.5t160.5 -20.5q37 0 76 5.5t80 17.5v-231q-41 -14 -83 -20.5t-83 -6.5q-86 0 -167 20.5t-156.5 46t-146.5 46t-134 20.5q-20 0 -40 -2 t-38 -8v229z" />
<glyph unicode="R" horiz-adv-x="1030" d="M92 0v1419q84 18 180.5 26.5t165.5 8.5q88 0 172 -17.5t148.5 -63.5t104.5 -125t40 -199q0 -174 -64.5 -284t-176.5 -151l81 -65l265 -549h-297l-250 565l-111 27v-592h-258zM350 768h88q96 0 145.5 58.5t49.5 181.5q0 92 -41 150.5t-129 58.5q-33 0 -63.5 -2.5 t-49.5 -8.5v-438z" />
<glyph unicode="S" horiz-adv-x="899" d="M39 51l84 232q41 -25 112.5 -49.5t153.5 -24.5q205 0 205 160q0 66 -39 111.5t-97.5 86.5t-127 84t-127 100.5t-97 135.5t-38.5 190q0 104 31.5 177t87 119t131 67.5t161.5 21.5q104 0 194.5 -20.5t149.5 -55.5l-80 -227q-35 25 -103.5 45.5t-147.5 20.5q-80 0 -123 -33 t-43 -96q0 -57 38.5 -101.5t97 -85.5t127 -85t127 -102t97.5 -137t39 -188t-32 -188.5t-90 -131.5t-140 -79t-182 -27q-127 0 -222.5 24.5t-146.5 55.5z" />
<glyph unicode="T" horiz-adv-x="970" d="M16 1196v238h938v-238h-340v-1196h-258v1196h-340z" />
<glyph unicode="U" horiz-adv-x="1054" d="M86 469v965h258v-920q0 -168 45 -234.5t150 -66.5q100 0 143 70.5t43 230.5v920h244v-930q0 -279 -114 -404t-314 -125q-236 0 -345.5 122t-109.5 372z" />
<glyph unicode="V" horiz-adv-x="1030" d="M-20 1434h305l213 -842l28 -246h9l32 248l209 840h273l-435 -1444h-196z" />
<glyph unicode="W" horiz-adv-x="1468" d="M-4 1434h285l139 -789l20 -258h9l22 262l193 785h180l186 -789l23 -258h8l22 262l127 785h263l-322 -1444h-182l-201 790l-27 224h-10l-24 -226l-201 -788h-191z" />
<glyph unicode="X" horiz-adv-x="1081" d="M12 0l350 729l-317 705h311l166 -410l39 -156l37 156l174 410h279l-328 -691l344 -743h-301l-193 440l-43 160l-41 -160l-192 -440h-285z" />
<glyph unicode="Y" horiz-adv-x="1013" d="M-8 1434h307l199 -543l20 -156h10l23 160l194 539h277l-387 -899v-535h-258v532z" />
<glyph unicode="Z" horiz-adv-x="911" d="M43 0v238l479 874l86 84h-565v238h825v-238l-481 -881l-84 -77h565v-238h-825z" />
<glyph unicode="[" horiz-adv-x="565" d="M92 -471v1905h426v-211h-190v-1483h190v-211h-426z" />
<glyph unicode="\" horiz-adv-x="741" d="M-37 1384l193 72l608 -1667l-191 -76z" />
<glyph unicode="]" horiz-adv-x="565" d="M47 -260h191v1483h-191v211h426v-1905h-426v211z" />
<glyph unicode="^" horiz-adv-x="876" d="M37 846l334 598h139l317 -598h-243l-115 250l-35 149l-43 -151l-121 -248h-233z" />
<glyph unicode="_" horiz-adv-x="765" d="M0 -250h766v-209h-766v209z" />
<glyph unicode="`" horiz-adv-x="593" d="M123 1413v62h248l100 -316h-135z" />
<glyph unicode="a" horiz-adv-x="845" d="M35 283q0 184 131 262q113 67 295 67q29 0 59 -2q3 34 3 63q0 71 -18 109q-26 53 -110 54q-61 0 -126.5 -14.5t-116.5 -41.5l-62 183q61 37 153.5 59t209.5 22q174 0 242.5 -90t68.5 -256q0 -96 -5 -189t-7 -182q-1 -25 -1 -51q0 -62 4 -121q5 -83 27 -157h-198l-39 125 h-8q-33 -59 -92.5 -98t-149.5 -39q-121 0 -190.5 81t-69.5 216zM287 324q0 -63 25.5 -96t70.5 -33q55 0 90 27.5t51 60.5v170q-28 4 -55 3q-18 0 -35 -1q-43 -4 -75.5 -18.5t-52 -42t-19.5 -70.5z" />
<glyph unicode="b" horiz-adv-x="907" d="M88 41v1393h244v-476h6q74 90 211 91q145 0 226 -121t81 -389q0 -291 -114.5 -427.5t-313.5 -136.5q-109 0 -200 20.5t-140 45.5zM332 221q43 -23 112 -22q78 0 119 74.5t41 250.5q0 156 -32.5 228.5t-102.5 72.5q-102 0 -137 -106v-498z" />
<glyph unicode="c" horiz-adv-x="716" d="M51 512q0 268 96.5 403.5t282.5 135.5q92 0 150.5 -16.5t103.5 -41.5l-57 -202q-37 18 -71 27t-81 9q-86 0 -129 -74.5t-43 -240.5q0 -139 44 -227t140 -88q51 0 87 13t67 34l51 -189q-51 -41 -122.5 -61.5t-143.5 -20.5q-104 0 -175 38t-116 108.5t-64.5 170 t-19.5 222.5z" />
<glyph unicode="d" horiz-adv-x="911" d="M51 496q0 270 96.5 410.5t286.5 140.5q49 0 82 -6.5t64 -20.5v414h243v-1074q0 -86 2 -172t17 -190h-172l-33 119h-8q-70 -143 -244 -144q-156 0 -245 123.5t-89 399.5zM303 487q0 -141 34 -215.5t105 -74.5q55 0 88 27.5t50 80.5v483q-20 18 -46 26.5t-67 8.5 q-82 0 -123 -74t-41 -262z" />
<glyph unicode="e" horiz-adv-x="876" d="M51 512q0 276 109.5 408.5t304.5 132.5q66 0 127 -19.5t109.5 -65.5t78 -123t29.5 -194q0 -45 -5 -96t-16 -111h-497q4 -127 53 -194.5t158 -67.5q66 0 120 20.5t83 43.5l75 -170q-51 -45 -139 -74t-184 -29q-106 0 -183 37t-126.5 106.5t-73 169t-23.5 226.5zM299 606 h283q1 19 1 38q0 89 -26 139q-31 60 -96 61q-78 0 -117 -62.5t-45 -175.5z" />
<glyph unicode="f" horiz-adv-x="546" d="M16 807v217h111v57q0 195 72.5 282t208.5 87q135 0 225 -37l-45 -207q-37 14 -65.5 17.5t-59.5 3.5q-59 0 -75.5 -46t-16.5 -157h174v-217h-174v-807h-244v807h-111z" />
<glyph unicode="g" horiz-adv-x="907" d="M51 492q0 285 111.5 420t318.5 135q111 0 199 -17.5t141 -42.5v-987q0 -223 -102.5 -328.5t-284.5 -105.5q-127 0 -198.5 19.5t-110.5 41.5l51 207q45 -18 97.5 -34.5t123.5 -16.5q104 0 144.5 56.5t40.5 170.5v56h-7q-29 -41 -76.5 -61.5t-123.5 -20.5q-162 0 -243 122 t-81 386zM303 502q0 -309 139 -309q55 0 87 26.5t49 75.5v512q-23 10 -50.5 16t-64.5 6q-76 0 -118 -73.5t-42 -253.5z" />
<glyph unicode="h" horiz-adv-x="919" d="M88 0v1434h244v-502h6q41 53 99.5 86t146.5 33q63 0 110 -18.5t80 -61.5t49.5 -116t16.5 -183v-672h-244v618q0 111 -25.5 160t-93.5 49q-49 0 -90 -34.5t-55 -87.5v-705h-244z" />
<glyph unicode="i" horiz-adv-x="460" d="M109 0v1024h243v-1024h-243zM80 1313q0 61 39 101t110 40q72 0 115 -39t43 -102t-43 -100t-115 -37t-110.5 38t-38.5 99z" />
<glyph unicode="j" horiz-adv-x="460" d="M-33 -195q88 -8 116 50.5t28 173.5v995h243v-1067q0 -186 -64.5 -284.5t-205.5 -98.5q-57 0 -117 14v217zM80 1313q0 61 39 101t110 40q72 0 115 -39t43 -102t-43 -100t-115 -37t-110.5 38t-38.5 99z" />
<glyph unicode="k" horiz-adv-x="843" d="M88 0v1434h244v-846l49 28l170 408h264l-188 -406l-88 -69l96 -70l209 -479h-275l-180 424h-57v-424h-244z" />
<glyph unicode="l" horiz-adv-x="497" d="M92 201v1233h244v-1102q0 -72 14.5 -102.5t46.5 -30.5q18 0 38 4t44 14l23 -197q-25 -16 -84.5 -30.5t-120.5 -14.5q-102 0 -153.5 51.5t-51.5 174.5z" />
<glyph unicode="m" horiz-adv-x="1357" d="M88 0v1024h188l31 -123h6q39 63 97.5 105.5t154.5 42.5q80 0 130 -35t79 -123q39 74 102.5 116t149.5 42q68 0 116 -17.5t77.5 -60.5t44 -118t14.5 -189v-664h-244v623q0 104 -18.5 153t-81.5 49q-51 0 -83 -29.5t-46 -80.5v-715h-244v596q0 129 -20.5 179t-79.5 50 q-49 0 -81 -31.5t-48 -76.5v-717h-244z" />
<glyph unicode="n" horiz-adv-x="919" d="M88 0v1024h195l28 -119h6q37 59 100.5 101.5t166.5 42.5q61 0 109 -18.5t81 -60.5t49.5 -113t16.5 -175v-682h-244v623q0 113 -26.5 157.5t-90.5 44.5q-53 0 -92 -32.5t-55 -81.5v-711h-244z" />
<glyph unicode="o" horiz-adv-x="911" d="M51 512q0 272 106.5 405.5t297.5 133.5q205 0 305 -135.5t100 -403.5q0 -274 -106.5 -406.5t-298.5 -132.5q-404 0 -404 539zM303 512q0 -154 35 -238t117 -84q78 0 115.5 73t37.5 249q0 158 -34.5 240t-118.5 82q-72 0 -112 -73t-40 -249z" />
<glyph unicode="p" horiz-adv-x="915" d="M88 -410v1434h182l25 -117h6q47 74 105.5 108t144.5 34q156 0 234.5 -118t78.5 -392t-98 -421t-285 -147q-49 0 -84 8.5t-65 26.5v-416h-244zM332 229q20 -20 45.5 -30.5t66.5 -10.5q82 0 125 81t43 276q0 145 -32.5 215.5t-108.5 70.5q-102 0 -139 -120v-482z" />
<glyph unicode="q" horiz-adv-x="907" d="M51 492q0 274 117 414.5t332 140.5q92 0 181 -18.5t140 -41.5v-1397h-243v482h-9q-29 -45 -74.5 -73t-123.5 -28q-152 0 -236 129.5t-84 391.5zM303 502q0 -313 139 -314q55 0 87 28t49 79v510q-43 25 -115 24q-80 0 -120 -76.5t-40 -250.5z" />
<glyph unicode="r" horiz-adv-x="600" d="M88 0v1024h186l29 -123h8q27 68 77 105.5t116 37.5q49 0 96 -20l-29 -242q-49 18 -90 19q-55 0 -95 -31t-54 -86v-684h-244z" />
<glyph unicode="s" horiz-adv-x="716" d="M39 47l67 197q43 -25 99.5 -43.5t118.5 -18.5q47 0 77.5 21.5t30.5 68.5q0 43 -27.5 73t-70.5 55.5t-91 52t-91 65.5t-71 94.5t-28 139.5q0 143 78 221t229 78q90 0 170 -19.5t127 -48.5l-57 -188q-39 16 -94 31.5t-109 15.5q-100 0 -100 -84q0 -39 27.5 -64.5 t70.5 -50.5t91.5 -51.5t91.5 -66.5t70.5 -97t27.5 -141q0 -141 -86 -227.5t-256 -86.5q-84 0 -165 20.5t-130 53.5z" />
<glyph unicode="t" horiz-adv-x="595" d="M8 807v217h113v193l244 75v-268h198v-217h-198v-447q0 -88 17 -124.5t62 -36.5q31 0 55.5 6t53.5 18l31 -194q-45 -23 -104.5 -38.5t-125.5 -15.5q-117 0 -175 68t-58 227v537h-113z" />
<glyph unicode="u" horiz-adv-x="913" d="M80 358v666h244v-612q0 -121 22.5 -168t81.5 -47q57 0 96 42t56 101v684h243v-713q0 -84 6.5 -164.5t22.5 -146.5h-184l-43 139h-7q-39 -72 -105.5 -119t-164.5 -47q-63 0 -112.5 17.5t-84 60.5t-53 117.5t-18.5 189.5z" />
<glyph unicode="v" horiz-adv-x="817" d="M-27 1024h285l141 -535l25 -161h8l23 164l127 532h262l-344 -1034h-164z" />
<glyph unicode="w" horiz-adv-x="1220" d="M-14 1024h264l110 -514l19 -182h8l27 184l125 512h182l143 -524l25 -170h8l21 172l96 522h221l-252 -1034h-192l-154 571l-16 131h-13l-14 -135l-148 -567h-198z" />
<glyph unicode="x" horiz-adv-x="899" d="M8 0l264 524l-243 500h286l105 -242l39 -131l43 131l106 242h264l-245 -492l262 -532h-277l-125 266l-45 146l-47 -146l-125 -266h-262z" />
<glyph unicode="y" horiz-adv-x="819" d="M-20 1024h292l144 -575l26 -160h11l18 162l119 573h250l-256 -924q-35 -121 -66 -217t-65.5 -163.5t-78.5 -103.5t-106 -36q-43 0 -83 7t-68 24l41 209q27 -10 54.5 -9t51 20t42 60t30.5 109z" />
<glyph unicode="z" horiz-adv-x="780" d="M49 0v217l332 502l90 88h-422v217h678v-217l-328 -510l-88 -80h416v-217h-678z" />
<glyph unicode="{" horiz-adv-x="641" d="M66 383v197q66 0 100.5 42t34.5 132v438q0 109 42 176.5t144 67.5h219v-209h-84q-47 0 -67.5 -29t-20.5 -94v-416q0 -90 -34.5 -136t-82.5 -56v-21q47 -8 82 -61.5t35 -139.5v-413q0 -63 19.5 -93t70.5 -30h82v-209h-219q-186 0 -186 242v430q0 104 -34.5 143t-100.5 39z " />
<glyph unicode="|" horiz-adv-x="385" d="M92 -266v1700h201v-1700h-201z" />
<glyph unicode="}" horiz-adv-x="641" d="M51 -262h84q47 0 67.5 28.5t20.5 94.5v415q0 90 35 136.5t82 56.5v20q-47 8 -82 61.5t-35 139.5v414q0 63 -19.5 93t-70.5 30h-82v209h219q186 0 187 -240v-432q0 -104 34.5 -143t100.5 -39v-197q-66 0 -100.5 -42t-34.5 -132v-440q0 -111 -44 -176.5t-149 -65.5h-213 v209z" />
<glyph unicode="~" horiz-adv-x="909" d="M47 774q80 78 145.5 107.5t120.5 29.5q49 0 92.5 -16t82 -36.5t76.5 -37t79 -16.5q31 0 62.5 13t66.5 44l90 -211q-61 -55 -112.5 -76.5t-96.5 -21.5q-47 0 -89 17.5t-82 39t-80 40t-83 18.5q-41 0 -87 -21.5t-101 -77.5z" />
<glyph unicode="&#xa1;" horiz-adv-x="514" d="M72 887q0 78 40 116.5t105 38.5q72 0 111 -38.5t39 -116.5q0 -72 -40 -113t-110 -41q-68 0 -106.5 41t-38.5 113zM94 260l47 334h156l49 -334v-674h-252v674z" />
<glyph unicode="&#xa2;" d="M143 512q0 225 83 361.5t239 168.5v187h229v-187q88 -14 144 -49l-52 -196q-25 10 -54.5 17t-57.5 11v-628q41 6 71.5 18t53.5 27l49 -185q-29 -23 -69 -40t-85 -27v-195h-229v185q-88 14 -149.5 58t-99.5 113.5t-55.5 160.5t-17.5 200zM383 512q0 -119 31.5 -199 t101.5 -108v616q-66 -23 -99.5 -97.5t-33.5 -211.5z" />
<glyph unicode="&#xa3;" d="M90 0v223h4q51 2 92 24.5t68 59.5t41 84t14 98q0 59 -12 109h-207v205h123q-25 53 -43 118.5t-18 159.5q0 98 28.5 170t78.5 119t120 69.5t153 22.5q104 0 189.5 -20.5t150.5 -55.5l-77 -210q-35 20 -91.5 37.5t-134.5 17.5t-122 -47t-44 -146q0 -72 21.5 -126t50.5 -109 h240v-205h-170q4 -20 6 -39.5t2 -42.5q0 -59 -18.5 -129t-53.5 -113l-92 -71v-13l135 33h375v-223h-809z" />
<glyph unicode="&#xa4;" d="M-27 369l142 145l67 33q-23 37 -35 82t-12 100t13.5 102.5t37.5 88.5l-71 30l-142 144l142 149l145 -143l35 -68q37 29 87 42t105 13q53 0 106.5 -14t90.5 -39l35 66l143 143l144 -149l-142 -144l-69 -30q51 -76 51 -191q0 -55 -13.5 -103t-37.5 -83l69 -29l142 -145 l-144 -148l-143 141l-33 68q-35 -25 -90 -39t-109 -14q-55 0 -105 13t-87 40l-35 -68l-145 -141zM338 731q0 -68 42 -113t109 -45q68 0 110 45.5t42 112.5q0 66 -42 113t-110 47t-109.5 -47t-41.5 -113z" />
<glyph unicode="&#xa5;" d="M-25 1434h308l198 -543l21 -156h10l23 160l194 539h277l-322 -746h160v-162h-226v-118h226v-162h-226v-246h-258v246h-225v162h225v118h-225v162h158z" />
<glyph unicode="&#xa6;" horiz-adv-x="385" d="M92 -266v702h201v-702h-201zM92 731v703h201v-703h-201z" />
<glyph unicode="&#xa7;" horiz-adv-x="909" d="M78 723q0 63 25.5 124.5t72.5 108.5l72 29q-47 35 -78 84t-31 135q0 111 75 184.5t235 73.5q98 0 190 -19.5t137 -43.5l-61 -203q-43 20 -104.5 34.5t-114.5 14.5q-61 0 -87 -23.5t-26 -54.5q0 -39 33 -61.5t83 -40.5t108.5 -39.5t108.5 -59.5t82.5 -98.5t32.5 -156.5 q0 -63 -25.5 -126t-70.5 -110l-76 -29q47 -33 78 -83t31 -134q0 -125 -84 -191.5t-233 -66.5q-115 0 -196 22.5t-134 55.5l63 197q41 -23 97.5 -40.5t126.5 -17.5q61 0 88.5 20.5t27.5 63.5q0 39 -32.5 60.5t-83 41t-107.5 42t-107.5 60.5t-83 96.5t-32.5 150.5zM322 727 q0 -68 50 -105.5t136 -70.5q35 25 57.5 66.5t22.5 89.5q0 70 -50.5 103.5t-138.5 68.5q-35 -25 -56 -63t-21 -89z" />
<glyph unicode="&#xa8;" horiz-adv-x="884" d="M123 1333q0 66 36 103t95 37q57 0 92 -37t35 -103q0 -61 -35 -97t-92 -36q-59 0 -95 36t-36 97zM504 1333q0 66 34.5 103t94.5 37q59 0 94 -37t35 -103q0 -61 -35 -97t-94 -36t-94 36t-35 97z" />
<glyph unicode="&#xa9;" horiz-adv-x="1484" d="M104 610q0 147 49.5 265t135.5 201t202.5 127t251.5 44q133 0 250 -44t203 -127t135 -200.5t49 -265.5q0 -147 -49 -265t-135 -201t-202.5 -127t-250.5 -44q-147 0 -266 44t-201.5 127t-127 201t-44.5 265zM281 610q0 -111 33.5 -197.5t95 -148t146.5 -94.5t187 -33 q100 0 185.5 33t147 94.5t95 148.5t33.5 197q0 111 -33.5 198t-95 148.5t-146.5 94t-186 32.5q-102 0 -187 -32.5t-146.5 -94t-95 -148.5t-33.5 -198zM446 610q0 160 80 248t213 88q66 0 116 -15.5t97 -41.5l-57 -158q-31 16 -57.5 21.5t-49.5 5.5q-51 0 -78.5 -35 t-27.5 -113q0 -147 119 -147q59 0 110 26l54 -159q-39 -25 -98.5 -40.5t-127.5 -15.5q-141 0 -217 91t-76 245z" />
<glyph unicode="&#xaa;" horiz-adv-x="710" d="M59 973q0 68 30 112.5t81 71.5t118.5 36t141.5 5q4 53 -11.5 77.5t-72.5 24.5q-66 0 -119 -14t-90 -31l-45 127q45 29 127 48.5t187 19.5q135 0 185 -56.5t50 -172.5q0 -70 -2 -136.5t-2 -128.5q0 -49 2 -93t10 -85h-180l-27 90h-6q-20 -35 -62 -66.5t-114 -31.5 q-94 0 -147.5 56.5t-53.5 146.5zM270 999q0 -33 17.5 -52t44.5 -19q47 0 67.5 18.5t30.5 38.5v92q-68 8 -114 -7.5t-46 -70.5z" />
<glyph unicode="&#xab;" horiz-adv-x="829" d="M45 530l268 471l156 -104l-156 -281l-80 -84l80 -73l164 -277l-153 -104zM377 535l256 442l139 -92l-141 -273l-78 -80l78 -71l151 -268l-139 -95z" />
<glyph unicode="&#xac;" horiz-adv-x="909" d="M82 621v217h754v-457h-230v240h-524z" />
<glyph unicode="&#xad;" horiz-adv-x="610" d="M92 471v234h426v-234h-426z" />
<glyph unicode="&#xae;" horiz-adv-x="1218" d="M111 989q0 119 39.5 212t108.5 156.5t159 96.5t192 33q104 0 194.5 -33t158 -96.5t106.5 -156.5t39 -212t-40 -212t-107.5 -156.5t-158.5 -96t-192 -32.5q-104 0 -195 32.5t-159 96t-106.5 156.5t-38.5 212zM279 989q0 -86 26.5 -149.5t72.5 -105.5t105.5 -62.5 t126.5 -20.5q70 0 130.5 20.5t105.5 61.5t69.5 105.5t24.5 150.5t-26.5 149.5t-71.5 105.5t-104.5 63.5t-127.5 21.5q-150 0 -240.5 -90t-90.5 -250zM428 762v457q29 8 80 13t96 5q74 0 127 -30.5t53 -106.5q0 -55 -35.5 -86t-89.5 -35l50 -25l114 -192h-108l-111 184 l-84 27v-211h-92zM520 1026h60q53 0 79.5 15.5t26.5 54.5q0 61 -100 61q-20 0 -38 -1t-28 -7v-123z" />
<glyph unicode="&#xaf;" horiz-adv-x="802" d="M123 1161v187h557v-187h-557z" />
<glyph unicode="&#xb0;" horiz-adv-x="745" d="M90 1122q0 76 21.5 139.5t59.5 107.5t91 68.5t117 24.5q131 0 212 -88t81 -252q0 -160 -81 -248t-212 -88q-129 0 -209 88t-80 248zM274 1122q0 -68 29 -113.5t78 -45.5q47 0 76.5 46t29.5 113q0 70 -29.5 117t-76.5 47q-49 0 -78 -46t-29 -118z" />
<glyph unicode="&#xb1;" horiz-adv-x="909" d="M78 299v217h753v-217h-753zM78 807v217h264v293h225v-293h264v-217h-264v-193h-225v193h-264z" />
<glyph unicode="&#xb2;" horiz-adv-x="722" d="M92 915q47 37 101.5 89.5t100.5 110.5t75.5 118.5t29.5 118.5q0 104 -94 104q-45 0 -84 -13.5t-69 -31.5l-60 170q59 41 129 56.5t129 15.5q123 0 192.5 -64.5t69.5 -187.5q0 -61 -15 -115.5t-40 -102.5t-57.5 -91t-67.5 -82l-80 -52l99 15h184v-195h-543v137z" />
<glyph unicode="&#xb3;" horiz-adv-x="722" d="M100 813l43 176q76 -39 152 -39q74 0 103.5 31t29.5 80q0 47 -31.5 74.5t-113.5 27.5h-80v78l123 166l77 57l-102 -12h-190v186h491v-123l-143 -192l-62 -39l54 -2q88 -4 138 -64.5t50 -171.5q0 -74 -25.5 -127t-68.5 -87.5t-98.5 -51t-118.5 -16.5q-66 0 -125.5 13 t-102.5 36z" />
<glyph unicode="&#xb4;" horiz-adv-x="575" d="M123 1159l86 316h244v-62l-193 -254h-137z" />
<glyph unicode="&#xb5;" horiz-adv-x="974" d="M82 -410v1434h244v-588q0 -123 34.5 -183t112.5 -60q72 0 113 35.5t61 97.5v698h244v-690q0 -84 5 -169t22 -165h-183l-57 131h-8q-25 -66 -76 -111t-135 -45q-61 0 -96 27t-64 68h-8l35 -207v-273h-244z" />
<glyph unicode="&#x3bc;" horiz-adv-x="974" d="M82 -410v1434h244v-588q0 -123 34.5 -183t112.5 -60q72 0 113 35.5t61 97.5v698h244v-690q0 -84 5 -169t22 -165h-183l-57 131h-8q-25 -66 -76 -111t-135 -45q-61 0 -96 27t-64 68h-8l35 -207v-273h-244z" />
<glyph unicode="&#xb6;" horiz-adv-x="917" d="M43 1018q0 90 22.5 166t64.5 131t101.5 87t130.5 32h138v-1700h-199v868q-57 0 -105.5 32t-82 87t-52 131t-18.5 166zM627 -266v1700h198v-1700h-198z" />
<glyph unicode="&#xb7;" horiz-adv-x="434" d="M70 645q0 76 40 115t105 39q72 0 111 -39t39 -115q0 -74 -40 -115t-110 -41q-68 0 -106.5 41t-38.5 115z" />
<glyph unicode="&#xb8;" horiz-adv-x="624" d="M123 -418l14 99q86 -8 114 11t28 48q0 57 -144 65l101 195h155l-41 -88q70 -8 111 -44t41 -110q0 -47 -21.5 -81.5t-58.5 -58.5t-86 -36t-103 -12q-55 0 -110 12z" />
<glyph unicode="&#xb9;" horiz-adv-x="722" d="M70 1423l268 230h168v-680h143v-195h-520v195h160v344l18 94l-53 -66l-94 -63z" />
<glyph unicode="&#xba;" horiz-adv-x="716" d="M51 1110q0 94 22.5 159.5t63.5 107.5t97.5 61.5t123.5 19.5q68 0 124.5 -17.5t97.5 -58.5t64.5 -107.5t23.5 -164.5t-23.5 -164.5t-64.5 -107.5t-97.5 -58.5t-124.5 -17.5t-124 17.5t-97 58.5t-63.5 107.5t-22.5 164.5zM268 1110q0 -98 21.5 -138t68.5 -40q25 0 42.5 7 t28.5 27.5t16.5 55.5t5.5 88q0 104 -22.5 141t-70.5 37q-47 0 -68.5 -37t-21.5 -141z" />
<glyph unicode="&#xbb;" horiz-adv-x="829" d="M47 889l137 92l267 -436l-256 -443l-140 88l144 277l75 80l-75 71zM350 897l154 104l280 -452l-268 -471l-156 100l152 285l82 84l-82 74z" />
<glyph unicode="&#xbc;" horiz-adv-x="1533" d="M789 164v131l364 576h183v-531h125v-176h-125v-164h-195v164h-352zM967 326l88 14h86v172l14 113h-10l-39 -105l-78 -133zM326 55l704 1409l166 -80l-700 -1413zM66 1221l268 227h166v-875h-215v541l16 94l-53 -67l-90 -64z" />
<glyph unicode="&#xbd;" horiz-adv-x="1576" d="M326 55l704 1409l166 -80l-700 -1413zM956 137q47 37 101.5 89.5t100.5 110.5t75.5 118.5t29.5 118.5q0 104 -94 104q-45 0 -84 -13.5t-69 -31.5l-60 170q59 41 129 56.5t129 15.5q123 0 192.5 -64.5t69.5 -187.5q0 -61 -15 -115.5t-40 -102.5t-57.5 -91t-67.5 -82 l-80 -52l99 15h184v-195h-543v137zM64 1221l268 227h166v-875h-215v541l16 94l-53 -67l-90 -64z" />
<glyph unicode="&#xbe;" horiz-adv-x="1568" d="M363 55l704 1409l166 -80l-700 -1413zM77 608l43 176q76 -39 152 -39q74 0 103.5 31t29.5 80q0 47 -31.5 74.5t-113.5 27.5h-80v78l123 166l77 57l-102 -12h-190v186h491v-123l-143 -192l-62 -39l54 -2q88 -4 138 -64.5t50 -171.5q0 -74 -25.5 -127t-68.5 -87.5 t-98.5 -51t-118.5 -16.5q-66 0 -125.5 13t-102.5 36zM823 164v131l364 576h183v-531h125v-176h-125v-164h-195v164h-352zM1001 326l88 14h86v172l14 113h-10l-39 -105l-78 -133z" />
<glyph unicode="&#xbf;" horiz-adv-x="782" d="M39 -102q0 96 22.5 162.5t57.5 116.5t74.5 91t73.5 86t57.5 101.5t23.5 138.5h207q8 -94 -8.5 -165t-45 -125t-65.5 -97t-69.5 -85t-54 -88t-21.5 -104q0 -72 33.5 -113.5t111.5 -41.5q53 0 112.5 21.5t102.5 58.5l97 -185q-63 -47 -149.5 -79.5t-209.5 -32.5 q-164 0 -257 89t-93 251zM293 887q0 74 40 114.5t109 40.5q68 0 107 -40.5t39 -114.5q0 -76 -40 -115t-106 -39q-72 0 -110.5 39t-38.5 115z" />
<glyph unicode="&#xc0;" horiz-adv-x="1026" d="M-6 0l416 1444h202l418 -1444h-270l-88 324h-338l-84 -324h-256zM389 537h238l-82 333l-33 226h-8l-35 -228zM225 1720v62h291l168 -242h-193z" />
<glyph unicode="&#xc1;" horiz-adv-x="1026" d="M-6 0l416 1444h202l418 -1444h-270l-88 324h-338l-84 -324h-256zM389 537h238l-82 333l-33 226h-8l-35 -228zM342 1540l168 242h293v-62l-271 -180h-190z" />
<glyph unicode="&#xc2;" horiz-adv-x="1026" d="M-6 0l416 1444h202l418 -1444h-270l-88 324h-338l-84 -324h-256zM389 537h238l-82 333l-33 226h-8l-35 -228zM205 1511v82l223 189h178l213 -191v-80h-174l-96 84l-35 70l-37 -68l-102 -86h-170z" />
<glyph unicode="&#xc3;" horiz-adv-x="1026" d="M-6 0l416 1444h202l418 -1444h-270l-88 324h-338l-84 -324h-256zM389 537h238l-82 333l-33 226h-8l-35 -228zM168 1630q59 76 114.5 103.5t108.5 27.5q39 0 78 -11t76 -24l70 -23q34 -11 67 -11q29 0 55.5 11t50.5 40l56 -129q-53 -59 -101.5 -81t-95.5 -22 q-39 0 -77 11.5t-73.5 24t-70.5 23.5t-70 11t-67.5 -14.5t-67.5 -55.5z" />
<glyph unicode="&#xc4;" horiz-adv-x="1026" d="M-6 0l416 1444h202l418 -1444h-270l-88 324h-338l-84 -324h-256zM389 537h238l-82 333l-33 226h-8l-35 -228zM189 1634q0 53 31.5 86t109.5 33q72 0 103.5 -32.5t31.5 -86.5q0 -53 -31.5 -84.5t-103.5 -31.5q-78 0 -109.5 31.5t-31.5 84.5zM562 1634q0 53 31.5 86 t105.5 33q76 0 107.5 -32.5t31.5 -86.5q0 -53 -31.5 -84.5t-107.5 -31.5q-74 0 -105.5 31.5t-31.5 84.5z" />
<glyph unicode="&#xc5;" horiz-adv-x="1026" d="M-6 0l407 1415q-63 20 -89.5 62.5t-26.5 101.5q0 37 10 70.5t36.5 59.5t69.5 40t111 14q125 0 177 -49t52 -135q0 -55 -27.5 -100t-92.5 -66l409 -1413h-270l-88 324h-338l-84 -324h-256zM389 537h238l-82 333l-33 226h-8l-35 -228zM438 1579q0 -63 74 -63q43 0 59.5 15 t16.5 48q0 35 -17.5 52.5t-58.5 17.5q-74 0 -74 -70z" />
<glyph unicode="&#xc6;" horiz-adv-x="1468" d="M-49 0l717 1434h727v-238h-459v-352h416v-238h-416v-368h467v-238h-725v354h-295l-162 -354h-270zM481 567h197v502h-10l-54 -199z" />
<glyph unicode="&#xc7;" horiz-adv-x="935" d="M59 719q0 217 46.5 360.5t121 228.5t171 119.5t194.5 34.5q100 0 175 -16t122 -37l-51 -227q-39 20 -91.5 31.5t-123.5 11.5q-141 0 -217 -123t-76 -385q0 -113 17.5 -206t55 -160.5t96 -104.5t140.5 -37q72 0 123 19.5t92 45.5l51 -217q-45 -37 -112.5 -56t-139.5 -26 l-28 -63q70 -8 110.5 -44t40.5 -110q0 -47 -21.5 -81.5t-58.5 -58.5t-86 -36t-102 -12q-55 0 -111 12l15 99q86 -8 113.5 11t27.5 48q0 57 -143 65l88 172q-94 12 -174 59.5t-138.5 135.5t-92.5 223.5t-34 323.5z" />
<glyph unicode="&#xc8;" horiz-adv-x="880" d="M92 0v1434h717v-238h-459v-352h416v-238h-416v-368h467v-238h-725zM150 1720v62h291l168 -242h-193z" />
<glyph unicode="&#xc9;" horiz-adv-x="880" d="M92 0v1434h717v-238h-459v-352h416v-238h-416v-368h467v-238h-725zM311 1540l168 242h293v-62l-271 -180h-190z" />
<glyph unicode="&#xca;" horiz-adv-x="880" d="M92 0v1434h717v-238h-459v-352h416v-238h-416v-368h467v-238h-725zM137 1511v82l223 189h178l213 -191v-80h-174l-96 84l-35 70l-37 -68l-102 -86h-170z" />
<glyph unicode="&#xcb;" horiz-adv-x="880" d="M92 0v1434h717v-238h-459v-352h416v-238h-416v-368h467v-238h-725zM123 1634q0 53 31.5 86t109.5 33q72 0 103.5 -32.5t31.5 -86.5q0 -53 -31.5 -84.5t-103.5 -31.5q-78 0 -109.5 31.5t-31.5 84.5zM496 1634q0 53 31.5 86t105.5 33q76 0 107.5 -32.5t31.5 -86.5 q0 -53 -31.5 -84.5t-107.5 -31.5q-74 0 -105.5 31.5t-31.5 84.5z" />
<glyph unicode="&#xcc;" horiz-adv-x="487" d="M115 0v1434h258v-1434h-258zM-43 1720v62h291l168 -242h-193z" />
<glyph unicode="&#xcd;" horiz-adv-x="487" d="M115 0v1434h258v-1434h-258zM76 1540l168 242h293v-62l-271 -180h-190z" />
<glyph unicode="&#xce;" horiz-adv-x="487" d="M115 0v1434h258v-1434h-258zM-61 1511v82l223 189h178l213 -191v-80h-174l-96 84l-35 70l-37 -68l-102 -86h-170z" />
<glyph unicode="&#xcf;" horiz-adv-x="487" d="M115 0v1434h258v-1434h-258zM-78 1634q0 53 31.5 86t109.5 33q72 0 103.5 -32.5t31.5 -86.5q0 -53 -31.5 -84.5t-103.5 -31.5q-78 0 -109.5 31.5t-31.5 84.5zM295 1634q0 53 31.5 86t105.5 33q76 0 107.5 -32.5t31.5 -86.5q0 -53 -31.5 -84.5t-107.5 -31.5 q-74 0 -105.5 31.5t-31.5 84.5z" />
<glyph unicode="&#xd0;" horiz-adv-x="1136" d="M-6 659v162h139v613q37 6 83 9t94 6t93.5 4t79.5 1q170 0 284 -52t182.5 -147.5t97 -228.5t28.5 -297q0 -150 -27.5 -286t-97 -239.5t-188.5 -165t-299 -61.5q-27 0 -72 2.5t-94 5.5t-94 6t-70 7v661h-139zM391 223q6 -2 21.5 -3t33 -2t33 -2t21.5 -1q92 0 151.5 43 t93 114.5t47 165t13.5 195.5q0 94 -11.5 182.5t-43 155t-90 106.5t-150.5 40q-33 0 -66.5 -1.5t-52.5 -5.5v-389h221v-162h-221v-436z" />
<glyph unicode="&#xd1;" horiz-adv-x="1105" d="M92 0v1444h199l411 -721l89 -248h12l-33 244v715h244v-1444h-199l-407 715l-95 251h-10l33 -247v-709h-244zM213 1630q59 76 114.5 103.5t108.5 27.5q39 0 78 -11t76 -24l70 -23q34 -11 67 -11q29 0 55.5 11t50.5 40l56 -129q-53 -59 -101.5 -81t-95.5 -22 q-39 0 -77 11.5t-73.5 24t-70.5 23.5t-70 11t-67.5 -14.5t-67.5 -55.5z" />
<glyph unicode="&#xd2;" horiz-adv-x="1132" d="M59 717q0 365 125 555t381 190q133 0 229.5 -52t158 -149.5t91 -235.5t29.5 -308q0 -365 -128 -555.5t-380 -190.5q-135 0 -230 52.5t-156.5 149.5t-90.5 235.5t-29 308.5zM330 717q0 -109 12 -202t41 -160.5t73 -106.5t109 -39q119 0 178.5 121t59.5 387 q0 104 -12.5 197.5t-40 162t-72.5 108.5t-113 40q-235 0 -235 -508zM246 1720v62h291l168 -242h-193z" />
<glyph unicode="&#xd3;" horiz-adv-x="1132" d="M59 717q0 365 125 555t381 190q133 0 229.5 -52t158 -149.5t91 -235.5t29.5 -308q0 -365 -128 -555.5t-380 -190.5q-135 0 -230 52.5t-156.5 149.5t-90.5 235.5t-29 308.5zM330 717q0 -109 12 -202t41 -160.5t73 -106.5t109 -39q119 0 178.5 121t59.5 387 q0 104 -12.5 197.5t-40 162t-72.5 108.5t-113 40q-235 0 -235 -508zM449 1540l168 242h293v-62l-271 -180h-190z" />
<glyph unicode="&#xd4;" horiz-adv-x="1132" d="M59 717q0 365 125 555t381 190q133 0 229.5 -52t158 -149.5t91 -235.5t29.5 -308q0 -365 -128 -555.5t-380 -190.5q-135 0 -230 52.5t-156.5 149.5t-90.5 235.5t-29 308.5zM330 717q0 -109 12 -202t41 -160.5t73 -106.5t109 -39q119 0 178.5 121t59.5 387 q0 104 -12.5 197.5t-40 162t-72.5 108.5t-113 40q-235 0 -235 -508zM256 1511v82l223 189h178l213 -191v-80h-174l-96 84l-35 70l-37 -68l-102 -86h-170z" />
<glyph unicode="&#xd5;" horiz-adv-x="1132" d="M59 717q0 365 125 555t381 190q133 0 229.5 -52t158 -149.5t91 -235.5t29.5 -308q0 -365 -128 -555.5t-380 -190.5q-135 0 -230 52.5t-156.5 149.5t-90.5 235.5t-29 308.5zM330 717q0 -109 12 -202t41 -160.5t73 -106.5t109 -39q119 0 178.5 121t59.5 387 q0 104 -12.5 197.5t-40 162t-72.5 108.5t-113 40q-235 0 -235 -508zM225 1630q59 76 114.5 103.5t108.5 27.5q39 0 78 -11t76 -24l70 -23q34 -11 67 -11q29 0 55.5 11t50.5 40l56 -129q-53 -59 -101.5 -81t-95.5 -22q-39 0 -77 11.5t-73.5 24t-70.5 23.5t-70 11t-67.5 -14.5 t-67.5 -55.5z" />
<glyph unicode="&#xd6;" horiz-adv-x="1132" d="M59 717q0 365 125 555t381 190q133 0 229.5 -52t158 -149.5t91 -235.5t29.5 -308q0 -365 -128 -555.5t-380 -190.5q-135 0 -230 52.5t-156.5 149.5t-90.5 235.5t-29 308.5zM330 717q0 -109 12 -202t41 -160.5t73 -106.5t109 -39q119 0 178.5 121t59.5 387 q0 104 -12.5 197.5t-40 162t-72.5 108.5t-113 40q-235 0 -235 -508zM242 1634q0 53 31.5 86t109.5 33q72 0 103.5 -32.5t31.5 -86.5q0 -53 -31.5 -84.5t-103.5 -31.5q-78 0 -109.5 31.5t-31.5 84.5zM615 1634q0 53 31.5 86t105.5 33q76 0 107.5 -32.5t31.5 -86.5 q0 -53 -31.5 -84.5t-107.5 -31.5q-74 0 -105.5 31.5t-31.5 84.5z" />
<glyph unicode="&#xd7;" horiz-adv-x="909" d="M70 422l241 272l-237 264l155 150l228 -254l227 254l156 -150l-236 -264l236 -268l-156 -150l-227 254l-230 -256z" />
<glyph unicode="&#xd8;" horiz-adv-x="1132" d="M59 717q0 365 125 555t381 190q147 0 256 -67l37 69l162 -84l-66 -125q61 -98 90 -233t29 -305q0 -365 -128 -555.5t-380 -190.5q-74 0 -135 16.5t-113 45.5l-32 -62l-162 88l57 111q-63 98 -92 235.5t-29 311.5zM330 717q0 -63 4 -120.5t12 -111.5l354 676 q-53 63 -135 64q-235 0 -235 -508zM436 264q51 -55 129 -55q119 0 178.5 121t59.5 387q0 59 -4 113.5t-13 105.5z" />
<glyph unicode="&#xd9;" horiz-adv-x="1054" d="M86 469v965h258v-920q0 -168 45 -234.5t150 -66.5q100 0 143 70.5t43 230.5v920h244v-930q0 -279 -114 -404t-314 -125q-236 0 -345.5 122t-109.5 372zM209 1720v62h291l168 -242h-193z" />
<glyph unicode="&#xda;" horiz-adv-x="1054" d="M86 469v965h258v-920q0 -168 45 -234.5t150 -66.5q100 0 143 70.5t43 230.5v920h244v-930q0 -279 -114 -404t-314 -125q-236 0 -345.5 122t-109.5 372zM438 1540l168 242h293v-62l-271 -180h-190z" />
<glyph unicode="&#xdb;" horiz-adv-x="1054" d="M86 469v965h258v-920q0 -168 45 -234.5t150 -66.5q100 0 143 70.5t43 230.5v920h244v-930q0 -279 -114 -404t-314 -125q-236 0 -345.5 122t-109.5 372zM227 1511v82l223 189h178l213 -191v-80h-174l-96 84l-35 70l-37 -68l-102 -86h-170z" />
<glyph unicode="&#xdc;" horiz-adv-x="1054" d="M86 469v965h258v-920q0 -168 45 -234.5t150 -66.5q100 0 143 70.5t43 230.5v920h244v-930q0 -279 -114 -404t-314 -125q-236 0 -345.5 122t-109.5 372zM207 1634q0 53 31.5 86t109.5 33q72 0 103.5 -32.5t31.5 -86.5q0 -53 -31.5 -84.5t-103.5 -31.5q-78 0 -109.5 31.5 t-31.5 84.5zM580 1634q0 53 31.5 86t105.5 33q76 0 107.5 -32.5t31.5 -86.5q0 -53 -31.5 -84.5t-107.5 -31.5q-74 0 -105.5 31.5t-31.5 84.5z" />
<glyph unicode="&#xdd;" horiz-adv-x="1013" d="M-8 1434h307l199 -543l20 -156h10l23 160l194 539h277l-387 -899v-535h-258v532zM375 1540l168 242h293v-62l-271 -180h-190z" />
<glyph unicode="&#xde;" horiz-adv-x="976" d="M92 0v1434h258v-150q39 2 80 2q94 0 185.5 -17.5t163 -68.5t116.5 -144t45 -243q0 -133 -38 -227t-101.5 -153.5t-146.5 -87.5t-171 -28h-26q-18 0 -39 1t-40.5 3.5t-27.5 4.5v-326h-258zM350 559q12 -4 46 -7t46 -3q45 0 86 11t72 42t49.5 82t18.5 131q0 70 -17.5 116 t-46.5 73.5t-67.5 40t-81.5 12.5q-63 0 -105 -10v-488z" />
<glyph unicode="&#xdf;" horiz-adv-x="1095" d="M18 807v217h111v23q0 111 28.5 188.5t80 124.5t121 68.5t153.5 21.5q86 0 159.5 -19.5t128 -59.5t85 -98.5t30.5 -135.5q0 -72 -30.5 -120t-68.5 -87t-68.5 -74t-30.5 -78q0 -39 24.5 -65.5t62.5 -51t82 -51t82 -65.5t62.5 -93.5t24.5 -134.5q0 -68 -20.5 -130 t-62.5 -109t-104.5 -76t-146.5 -29q-78 0 -149.5 19.5t-120.5 50.5l63 193q41 -23 81 -38.5t97 -15.5q53 0 86 37t33 90q0 47 -24.5 78t-62.5 57.5t-82 52t-82 59.5t-62.5 83t-24.5 121q0 74 31 121t67.5 83.5t67.5 70.5t31 79q0 53 -45 87t-99 34q-74 0 -113.5 -46 t-39.5 -175v-1014h-244v807h-111z" />
<glyph unicode="&#xe0;" horiz-adv-x="845" d="M35 283q0 184 131 262q113 67 295 67q29 0 59 -2q3 34 3 63q0 71 -18 109q-26 53 -110 54q-61 0 -126.5 -14.5t-116.5 -41.5l-62 183q61 37 153.5 59t209.5 22q174 0 242.5 -90t68.5 -256q0 -96 -5 -189t-7 -182q-1 -25 -1 -51q0 -62 4 -121q5 -83 27 -157h-198l-39 125 h-8q-33 -59 -92.5 -98t-149.5 -39q-121 0 -190.5 81t-69.5 216zM287 324q0 -63 25.5 -96t70.5 -33q55 0 90 27.5t51 60.5v170q-28 4 -55 3q-18 0 -35 -1q-43 -4 -75.5 -18.5t-52 -42t-19.5 -70.5zM182 1413v62h248l100 -316h-135z" />
<glyph unicode="&#xe1;" horiz-adv-x="845" d="M35 283q0 184 131 262q113 67 295 67q29 0 59 -2q3 34 3 63q0 71 -18 109q-26 53 -110 54q-61 0 -126.5 -14.5t-116.5 -41.5l-62 183q61 37 153.5 59t209.5 22q174 0 242.5 -90t68.5 -256q0 -96 -5 -189t-7 -182q-1 -25 -1 -51q0 -62 4 -121q5 -83 27 -157h-198l-39 125 h-8q-33 -59 -92.5 -98t-149.5 -39q-121 0 -190.5 81t-69.5 216zM287 324q0 -63 25.5 -96t70.5 -33q55 0 90 27.5t51 60.5v170q-28 4 -55 3q-18 0 -35 -1q-43 -4 -75.5 -18.5t-52 -42t-19.5 -70.5zM316 1159l86 316h244v-62l-193 -254h-137z" />
<glyph unicode="&#xe2;" horiz-adv-x="845" d="M35 283q0 184 131 262q113 67 295 67q29 0 59 -2q3 34 3 63q0 71 -18 109q-26 53 -110 54q-61 0 -126.5 -14.5t-116.5 -41.5l-62 183q61 37 153.5 59t209.5 22q174 0 242.5 -90t68.5 -256q0 -96 -5 -189t-7 -182q-1 -25 -1 -51q0 -62 4 -121q5 -83 27 -157h-198l-39 125 h-8q-33 -59 -92.5 -98t-149.5 -39q-121 0 -190.5 81t-69.5 216zM287 324q0 -63 25.5 -96t70.5 -33q55 0 90 27.5t51 60.5v170q-28 4 -55 3q-18 0 -35 -1q-43 -4 -75.5 -18.5t-52 -42t-19.5 -70.5zM150 1126l207 373h174l186 -373h-190l-66 136l-26 100l-27 -100l-76 -136 h-182z" />
<glyph unicode="&#xe3;" horiz-adv-x="845" d="M35 283q0 184 131 262q113 67 295 67q29 0 59 -2q3 34 3 63q0 71 -18 109q-26 53 -110 54q-61 0 -126.5 -14.5t-116.5 -41.5l-62 183q61 37 153.5 59t209.5 22q174 0 242.5 -90t68.5 -256q0 -96 -5 -189t-7 -182q-1 -25 -1 -51q0 -62 4 -121q5 -83 27 -157h-198l-39 125 h-8q-33 -59 -92.5 -98t-149.5 -39q-121 0 -190.5 81t-69.5 216zM287 324q0 -63 25.5 -96t70.5 -33q55 0 90 27.5t51 60.5v170q-28 4 -55 3q-18 0 -35 -1q-43 -4 -75.5 -18.5t-52 -42t-19.5 -70.5zM123 1343q59 76 110.5 104t94.5 28q37 0 68.5 -13.5t62 -31t61.5 -31 t62 -13.5q23 0 47 10.5t53 37.5l45 -125q-55 -66 -103.5 -90.5t-88.5 -24.5q-37 0 -69 12.5t-62.5 27.5t-61.5 28.5t-61 13.5q-27 0 -53.5 -11.5t-55.5 -39.5z" />
<glyph unicode="&#xe4;" horiz-adv-x="845" d="M35 283q0 184 131 262q113 67 295 67q29 0 59 -2q3 34 3 63q0 71 -18 109q-26 53 -110 54q-61 0 -126.5 -14.5t-116.5 -41.5l-62 183q61 37 153.5 59t209.5 22q174 0 242.5 -90t68.5 -256q0 -96 -5 -189t-7 -182q-1 -25 -1 -51q0 -62 4 -121q5 -83 27 -157h-198l-39 125 h-8q-33 -59 -92.5 -98t-149.5 -39q-121 0 -190.5 81t-69.5 216zM287 324q0 -63 25.5 -96t70.5 -33q55 0 90 27.5t51 60.5v170q-28 4 -55 3q-18 0 -35 -1q-43 -4 -75.5 -18.5t-52 -42t-19.5 -70.5zM115 1333q0 66 36 103t95 37q57 0 92 -37t35 -103q0 -61 -35 -97t-92 -36 q-59 0 -95 36t-36 97zM496 1333q0 66 34.5 103t94.5 37q59 0 94 -37t35 -103q0 -61 -35 -97t-94 -36t-94 36t-35 97z" />
<glyph unicode="&#xe5;" horiz-adv-x="845" d="M35 283q0 184 131 262q113 67 295 67q29 0 59 -2q3 34 3 63q0 71 -18 109q-26 53 -110 54q-61 0 -126.5 -14.5t-116.5 -41.5l-62 183q61 37 153.5 59t209.5 22q174 0 242.5 -90t68.5 -256q0 -96 -5 -189t-7 -182q-1 -25 -1 -51q0 -62 4 -121q5 -83 27 -157h-198l-39 125 h-8q-33 -59 -92.5 -98t-149.5 -39q-121 0 -190.5 81t-69.5 216zM287 324q0 -63 25.5 -96t70.5 -33q55 0 90 27.5t51 60.5v170q-28 4 -55 3q-18 0 -35 -1q-43 -4 -75.5 -18.5t-52 -42t-19.5 -70.5zM234 1325q0 92 50 143.5t149 51.5q94 0 147 -48.5t53 -146.5q0 -86 -52 -138 t-148 -52t-147.5 51t-51.5 139zM371 1325q0 -35 17.5 -52.5t44.5 -17.5q63 0 63 70q0 39 -17.5 56.5t-45.5 17.5q-27 0 -44.5 -16.5t-17.5 -57.5z" />
<glyph unicode="&#xe6;" horiz-adv-x="1337" d="M35 285q0 94 33.5 158.5t96 104.5t153 56.5t200.5 9.5q2 18 2 34v32q0 80 -26.5 115.5t-96.5 35.5q-63 0 -128.5 -18t-116.5 -47l-64 184q66 43 160 68.5t196 25.5q86 0 140.5 -26.5t89.5 -83.5q41 59 106.5 89t147.5 30q66 0 128 -19.5t110 -66.5t77 -125t29 -195 q0 -45 -5 -96t-16 -109h-493q4 -135 51 -197.5t154 -62.5q63 0 117.5 19.5t82.5 42.5l80 -170q-51 -41 -137 -71t-191 -30q-223 0 -317 166h-10q-43 -70 -109.5 -112.5t-179.5 -42.5q-123 0 -193.5 84t-70.5 217zM287 324q0 -57 24.5 -90t71.5 -33q57 0 92 27.5t51 64.5v164 q-47 4 -90 1t-76.5 -18.5t-53 -43t-19.5 -72.5zM764 604h280q6 111 -24.5 175.5t-97.5 64.5q-78 0 -115 -61.5t-43 -178.5z" />
<glyph unicode="&#xe7;" horiz-adv-x="716" d="M51 512q0 268 96.5 403.5t282.5 135.5q92 0 150.5 -16.5t103.5 -41.5l-57 -202q-37 18 -71 27t-81 9q-86 0 -129 -74.5t-43 -240.5q0 -139 44 -227t140 -88q51 0 87 13t67 34l51 -189q-37 -31 -84 -48t-100 -27l-31 -68q70 -8 111 -44t41 -110q0 -47 -21.5 -81.5 t-58.5 -58.5t-86 -36t-103 -12q-55 0 -110 12l14 99q86 -8 114 11t28 48q0 57 -144 65l88 175q-164 27 -231.5 168t-67.5 364z" />
<glyph unicode="&#xe8;" horiz-adv-x="876" d="M51 512q0 276 109.5 408.5t304.5 132.5q66 0 127 -19.5t109.5 -65.5t78 -123t29.5 -194q0 -45 -5 -96t-16 -111h-497q4 -127 53 -194.5t158 -67.5q66 0 120 20.5t83 43.5l75 -170q-51 -45 -139 -74t-184 -29q-106 0 -183 37t-126.5 106.5t-73 169t-23.5 226.5zM299 606 h283q1 19 1 38q0 89 -26 139q-31 60 -96 61q-78 0 -117 -62.5t-45 -175.5zM207 1413v62h248l100 -316h-135z" />
<glyph unicode="&#xe9;" horiz-adv-x="876" d="M51 512q0 276 109.5 408.5t304.5 132.5q66 0 127 -19.5t109.5 -65.5t78 -123t29.5 -194q0 -45 -5 -96t-16 -111h-497q4 -127 53 -194.5t158 -67.5q66 0 120 20.5t83 43.5l75 -170q-51 -45 -139 -74t-184 -29q-106 0 -183 37t-126.5 106.5t-73 169t-23.5 226.5zM299 606 h283q1 19 1 38q0 89 -26 139q-31 60 -96 61q-78 0 -117 -62.5t-45 -175.5zM371 1159l86 316h244v-62l-193 -254h-137z" />
<glyph unicode="&#xea;" horiz-adv-x="876" d="M51 512q0 276 109.5 408.5t304.5 132.5q66 0 127 -19.5t109.5 -65.5t78 -123t29.5 -194q0 -45 -5 -96t-16 -111h-497q4 -127 53 -194.5t158 -67.5q66 0 120 20.5t83 43.5l75 -170q-51 -45 -139 -74t-184 -29q-106 0 -183 37t-126.5 106.5t-73 169t-23.5 226.5zM299 606 h283q1 19 1 38q0 89 -26 139q-31 60 -96 61q-78 0 -117 -62.5t-45 -175.5zM160 1126l207 373h174l186 -373h-190l-66 136l-26 100l-27 -100l-76 -136h-182z" />
<glyph unicode="&#xeb;" horiz-adv-x="876" d="M51 512q0 276 109.5 408.5t304.5 132.5q66 0 127 -19.5t109.5 -65.5t78 -123t29.5 -194q0 -45 -5 -96t-16 -111h-497q4 -127 53 -194.5t158 -67.5q66 0 120 20.5t83 43.5l75 -170q-51 -45 -139 -74t-184 -29q-106 0 -183 37t-126.5 106.5t-73 169t-23.5 226.5zM299 606 h283q1 19 1 38q0 89 -26 139q-31 60 -96 61q-78 0 -117 -62.5t-45 -175.5zM133 1333q0 66 36 103t95 37q57 0 92 -37t35 -103q0 -61 -35 -97t-92 -36q-59 0 -95 36t-36 97zM514 1333q0 66 34.5 103t94.5 37q59 0 94 -37t35 -103q0 -61 -35 -97t-94 -36t-94 36t-35 97z" />
<glyph unicode="&#xec;" horiz-adv-x="460" d="M109 0v1024h243v-1024h-243zM-10 1413v62h248l100 -316h-135z" />
<glyph unicode="&#xed;" horiz-adv-x="460" d="M109 0v1024h243v-1024h-243zM121 1159l86 316h244v-62l-193 -254h-137z" />
<glyph unicode="&#xee;" horiz-adv-x="460" d="M109 0v1024h243v-1024h-243zM-55 1126l207 373h174l186 -373h-190l-66 136l-26 100l-27 -100l-76 -136h-182z" />
<glyph unicode="&#xef;" horiz-adv-x="460" d="M109 0v1024h243v-1024h-243zM-88 1333q0 66 36 103t95 37q57 0 92 -37t35 -103q0 -61 -35 -97t-92 -36q-59 0 -95 36t-36 97zM293 1333q0 66 34.5 103t94.5 37q59 0 94 -37t35 -103q0 -61 -35 -97t-94 -36t-94 36t-35 97z" />
<glyph unicode="&#xf0;" horiz-adv-x="937" d="M55 502q0 125 29 221t80 162.5t121.5 101.5t154.5 35q59 0 111.5 -18.5t85.5 -57.5q-37 143 -129 234l-119 -93l-84 101l98 76q-61 37 -127 59l99 139q43 -14 96 -39q41 -18 82 -45l96 74l82 -102l-76 -60q18 -18 37 -41q55 -61 97 -149t68 -204t26 -265q0 -176 -30 -301 t-85 -205t-134 -117t-177 -37q-199 0 -300.5 138.5t-101.5 392.5zM291 500q0 -166 50 -239t132 -73q39 0 70.5 20.5t55.5 67t37 119t13 178.5q0 12 -1 35l-2 45q-1 23 -3 45.5t-4 34.5q-27 37 -73 54.5t-93 17.5q-90 0 -136 -80t-46 -225z" />
<glyph unicode="&#xf1;" horiz-adv-x="919" d="M88 0v1024h195l28 -119h6q37 59 100.5 101.5t166.5 42.5q61 0 109 -18.5t81 -60.5t49.5 -113t16.5 -175v-682h-244v623q0 113 -26.5 157.5t-90.5 44.5q-53 0 -92 -32.5t-55 -81.5v-711h-244zM158 1343q59 76 110.5 104t94.5 28q37 0 68.5 -13.5t62 -31t61.5 -31t62 -13.5 q23 0 47 10.5t53 37.5l45 -125q-55 -66 -103.5 -90.5t-88.5 -24.5q-37 0 -69 12.5t-62.5 27.5t-61.5 28.5t-61 13.5q-27 0 -53.5 -11.5t-55.5 -39.5z" />
<glyph unicode="&#xf2;" horiz-adv-x="911" d="M51 512q0 272 106.5 405.5t297.5 133.5q205 0 305 -135.5t100 -403.5q0 -274 -106.5 -406.5t-298.5 -132.5q-404 0 -404 539zM303 512q0 -154 35 -238t117 -84q78 0 115.5 73t37.5 249q0 158 -34.5 240t-118.5 82q-72 0 -112 -73t-40 -249zM207 1413v62h248l100 -316 h-135z" />
<glyph unicode="&#xf3;" horiz-adv-x="911" d="M51 512q0 272 106.5 405.5t297.5 133.5q205 0 305 -135.5t100 -403.5q0 -274 -106.5 -406.5t-298.5 -132.5q-404 0 -404 539zM303 512q0 -154 35 -238t117 -84q78 0 115.5 73t37.5 249q0 158 -34.5 240t-118.5 82q-72 0 -112 -73t-40 -249zM373 1159l86 316h244v-62 l-193 -254h-137z" />
<glyph unicode="&#xf4;" horiz-adv-x="911" d="M51 512q0 272 106.5 405.5t297.5 133.5q205 0 305 -135.5t100 -403.5q0 -274 -106.5 -406.5t-298.5 -132.5q-404 0 -404 539zM303 512q0 -154 35 -238t117 -84q78 0 115.5 73t37.5 249q0 158 -34.5 240t-118.5 82q-72 0 -112 -73t-40 -249zM174 1126l207 373h174 l186 -373h-190l-66 136l-26 100l-27 -100l-76 -136h-182z" />
<glyph unicode="&#xf5;" horiz-adv-x="911" d="M51 512q0 272 106.5 405.5t297.5 133.5q205 0 305 -135.5t100 -403.5q0 -274 -106.5 -406.5t-298.5 -132.5q-404 0 -404 539zM303 512q0 -154 35 -238t117 -84q78 0 115.5 73t37.5 249q0 158 -34.5 240t-118.5 82q-72 0 -112 -73t-40 -249zM150 1343q59 76 110.5 104 t94.5 28q37 0 68.5 -13.5t62 -31t61.5 -31t62 -13.5q23 0 47 10.5t53 37.5l45 -125q-55 -66 -103.5 -90.5t-88.5 -24.5q-37 0 -69 12.5t-62.5 27.5t-61.5 28.5t-61 13.5q-27 0 -53.5 -11.5t-55.5 -39.5z" />
<glyph unicode="&#xf6;" horiz-adv-x="911" d="M51 512q0 272 106.5 405.5t297.5 133.5q205 0 305 -135.5t100 -403.5q0 -274 -106.5 -406.5t-298.5 -132.5q-404 0 -404 539zM303 512q0 -154 35 -238t117 -84q78 0 115.5 73t37.5 249q0 158 -34.5 240t-118.5 82q-72 0 -112 -73t-40 -249zM135 1333q0 66 36 103t95 37 q57 0 92 -37t35 -103q0 -61 -35 -97t-92 -36q-59 0 -95 36t-36 97zM516 1333q0 66 34.5 103t94.5 37q59 0 94 -37t35 -103q0 -61 -35 -97t-94 -36t-94 36t-35 97z" />
<glyph unicode="&#xf7;" horiz-adv-x="909" d="M78 588v217h753v-217h-753zM309 324q0 76 40 114.5t106 38.5q72 0 110.5 -39t38.5 -114q0 -74 -40 -115t-109 -41q-68 0 -107 41t-39 115zM309 1071q0 76 40 115t106 39q72 0 110.5 -39t38.5 -115q0 -74 -40 -115t-109 -41q-68 0 -107 41t-39 115z" />
<glyph unicode="&#xf8;" horiz-adv-x="917" d="M57 512q0 274 106.5 407.5t299.5 133.5q100 0 178 -37l37 61l162 -100l-56 -94q82 -133 82 -371q0 -274 -105.5 -407.5t-297.5 -133.5q-57 0 -104.5 11.5t-88.5 31.5l-39 -63l-165 104l61 105q-70 131 -70 352zM305 512q0 -68 6 -123l240 410q-35 37 -88 37 q-76 0 -117 -74t-41 -250zM367 233q37 -45 96 -45q78 0 116.5 72t38.5 252q0 39 -2 72.5t-6 64.5z" />
<glyph unicode="&#xf9;" horiz-adv-x="913" d="M80 358v666h244v-612q0 -121 22.5 -168t81.5 -47q57 0 96 42t56 101v684h243v-713q0 -84 6.5 -164.5t22.5 -146.5h-184l-43 139h-7q-39 -72 -105.5 -119t-164.5 -47q-63 0 -112.5 17.5t-84 60.5t-53 117.5t-18.5 189.5zM195 1413v62h248l100 -316h-135z" />
<glyph unicode="&#xfa;" horiz-adv-x="913" d="M80 358v666h244v-612q0 -121 22.5 -168t81.5 -47q57 0 96 42t56 101v684h243v-713q0 -84 6.5 -164.5t22.5 -146.5h-184l-43 139h-7q-39 -72 -105.5 -119t-164.5 -47q-63 0 -112.5 17.5t-84 60.5t-53 117.5t-18.5 189.5zM348 1159l86 316h244v-62l-193 -254h-137z" />
<glyph unicode="&#xfb;" horiz-adv-x="913" d="M80 358v666h244v-612q0 -121 22.5 -168t81.5 -47q57 0 96 42t56 101v684h243v-713q0 -84 6.5 -164.5t22.5 -146.5h-184l-43 139h-7q-39 -72 -105.5 -119t-164.5 -47q-63 0 -112.5 17.5t-84 60.5t-53 117.5t-18.5 189.5zM170 1126l207 373h174l186 -373h-190l-66 136 l-26 100l-27 -100l-76 -136h-182z" />
<glyph unicode="&#xfc;" horiz-adv-x="913" d="M80 358v666h244v-612q0 -121 22.5 -168t81.5 -47q57 0 96 42t56 101v684h243v-713q0 -84 6.5 -164.5t22.5 -146.5h-184l-43 139h-7q-39 -72 -105.5 -119t-164.5 -47q-63 0 -112.5 17.5t-84 60.5t-53 117.5t-18.5 189.5zM129 1333q0 66 36 103t95 37q57 0 92 -37t35 -103 q0 -61 -35 -97t-92 -36q-59 0 -95 36t-36 97zM510 1333q0 66 34.5 103t94.5 37q59 0 94 -37t35 -103q0 -61 -35 -97t-94 -36t-94 36t-35 97z" />
<glyph unicode="&#xfd;" horiz-adv-x="819" d="M-20 1024h292l144 -575l26 -160h11l18 162l119 573h250l-256 -924q-35 -121 -66 -217t-65.5 -163.5t-78.5 -103.5t-106 -36q-43 0 -83 7t-68 24l41 209q27 -10 54.5 -9t51 20t42 60t30.5 109zM334 1159l86 316h244v-62l-193 -254h-137z" />
<glyph unicode="&#xfe;" horiz-adv-x="913" d="M88 -410v1844h244v-486h6q35 47 85 76t128 29q156 0 233.5 -122t77.5 -392q0 -131 -24.5 -236.5t-72.5 -179.5t-120 -113t-166 -39q-49 0 -84 8.5t-63 24.5v-414h-244zM332 227q20 -18 45.5 -28.5t68.5 -10.5q82 0 123 81t41 276q0 143 -31.5 217t-107.5 74 q-53 0 -87 -31t-52 -86v-492z" />
<glyph unicode="&#xff;" horiz-adv-x="819" d="M-20 1024h292l144 -575l26 -160h11l18 162l119 573h250l-256 -924q-35 -121 -66 -217t-65.5 -163.5t-78.5 -103.5t-106 -36q-43 0 -83 7t-68 24l41 209q27 -10 54.5 -9t51 20t42 60t30.5 109zM98 1333q0 66 36 103t95 37q57 0 92 -37t35 -103q0 -61 -35 -97t-92 -36 q-59 0 -95 36t-36 97zM479 1333q0 66 34.5 103t94.5 37q59 0 94 -37t35 -103q0 -61 -35 -97t-94 -36t-94 36t-35 97z" />
<glyph unicode="&#x131;" horiz-adv-x="460" d="M109 0v1024h243v-1024h-243z" />
<glyph unicode="&#x152;" horiz-adv-x="1542" d="M59 717q0 362 125 553.5t373 191.5q61 0 111.5 -9t85.5 -19h714v-238h-456v-352h413v-238h-413v-368h465v-238h-723q-33 -12 -89.5 -20.5t-107.5 -8.5q-131 0 -225 53.5t-154.5 150.5t-89.5 234.5t-29 307.5zM330 717q0 -109 13 -202t43 -160.5t77 -106.5t117 -39 q47 0 88 8t86 31v926q-33 23 -80 37t-107 14q-117 0 -177 -124t-60 -384z" />
<glyph unicode="&#x153;" horiz-adv-x="1427" d="M51 512q0 266 105.5 403.5t298.5 137.5q115 0 180 -43t102 -97q39 53 103.5 96.5t175.5 43.5q66 0 128 -19.5t110.5 -65.5t77 -124t28.5 -193q0 -47 -5 -97t-16 -110h-495q4 -131 52 -199.5t153 -68.5q70 0 124 24.5t82 49.5l80 -170q-51 -47 -142 -78t-189 -31 q-92 0 -164 38t-113 104q-41 -66 -107.5 -104t-168.5 -38q-203 0 -301.5 139.5t-98.5 401.5zM303 512q0 -147 36 -235.5t116 -88.5q78 0 114.5 76t36.5 248q0 154 -33.5 239t-117.5 85q-72 0 -112 -74t-40 -250zM850 606h283q8 111 -22 176.5t-99 65.5q-82 0 -119 -69 t-43 -173z" />
<glyph unicode="&#x178;" horiz-adv-x="1013" d="M-8 1434h307l199 -543l20 -156h10l23 160l194 539h277l-387 -899v-535h-258v532zM191 1634q0 53 31.5 86t109.5 33q72 0 103.5 -32.5t31.5 -86.5q0 -53 -31.5 -84.5t-103.5 -31.5q-78 0 -109.5 31.5t-31.5 84.5zM564 1634q0 53 31.5 86t105.5 33q76 0 107.5 -32.5 t31.5 -86.5q0 -53 -31.5 -84.5t-107.5 -31.5q-74 0 -105.5 31.5t-31.5 84.5z" />
<glyph unicode="&#x237;" horiz-adv-x="460" d="M-33 -195q88 -8 116 50.5t28 173.5v995h243v-1067q0 -186 -64.5 -284.5t-205.5 -98.5q-57 0 -117 14v217z" />
<glyph unicode="&#x2c6;" horiz-adv-x="813" d="M123 1126l207 373h174l186 -373h-190l-66 136l-26 100l-27 -100l-76 -136h-182z" />
<glyph unicode="&#x2d9;" horiz-adv-x="552" d="M123 1313q0 61 39 101t110 40q72 0 115 -39t43 -102t-43 -100t-115 -37t-110.5 38t-38.5 99z" />
<glyph unicode="&#x2da;" horiz-adv-x="645" d="M123 1325q0 92 50 143.5t149 51.5q94 0 147 -48.5t53 -146.5q0 -86 -52 -138t-148 -52t-147.5 51t-51.5 139zM260 1325q0 -35 17.5 -52.5t44.5 -17.5q63 0 63 70q0 39 -17.5 56.5t-45.5 17.5q-27 0 -44.5 -16.5t-17.5 -57.5z" />
<glyph unicode="&#x2dc;" horiz-adv-x="849" d="M123 1343q59 76 110.5 104t94.5 28q37 0 68.5 -13.5t62 -31t61.5 -31t62 -13.5q23 0 47 10.5t53 37.5l45 -125q-55 -66 -103.5 -90.5t-88.5 -24.5q-37 0 -69 12.5t-62.5 27.5t-61.5 28.5t-61 13.5q-27 0 -53.5 -11.5t-55.5 -39.5z" />
<glyph unicode="&#x4d4;" horiz-adv-x="1468" d="M-49 0l717 1434h727v-238h-459v-352h416v-238h-416v-368h467v-238h-725v354h-295l-162 -354h-270zM481 567h197v502h-10l-54 -199z" />
<glyph unicode="&#x4d5;" horiz-adv-x="1337" d="M35 285q0 94 33.5 158.5t96 104.5t153 56.5t200.5 9.5q2 18 2 34v32q0 80 -26.5 115.5t-96.5 35.5q-63 0 -128.5 -18t-116.5 -47l-64 184q66 43 160 68.5t196 25.5q86 0 140.5 -26.5t89.5 -83.5q41 59 106.5 89t147.5 30q66 0 128 -19.5t110 -66.5t77 -125t29 -195 q0 -45 -5 -96t-16 -109h-493q4 -135 51 -197.5t154 -62.5q63 0 117.5 19.5t82.5 42.5l80 -170q-51 -41 -137 -71t-191 -30q-223 0 -317 166h-10q-43 -70 -109.5 -112.5t-179.5 -42.5q-123 0 -193.5 84t-70.5 217zM287 324q0 -57 24.5 -90t71.5 -33q57 0 92 27.5t51 64.5v164 q-47 4 -90 1t-76.5 -18.5t-53 -43t-19.5 -72.5zM764 604h280q6 111 -24.5 175.5t-97.5 64.5q-78 0 -115 -61.5t-43 -178.5z" />
<glyph unicode="&#x2000;" horiz-adv-x="890" />
<glyph unicode="&#x2001;" horiz-adv-x="1781" />
<glyph unicode="&#x2002;" horiz-adv-x="890" />
<glyph unicode="&#x2003;" horiz-adv-x="1781" />
<glyph unicode="&#x2004;" horiz-adv-x="593" />
<glyph unicode="&#x2005;" horiz-adv-x="444" />
<glyph unicode="&#x2006;" horiz-adv-x="296" />
<glyph unicode="&#x2007;" horiz-adv-x="296" />
<glyph unicode="&#x2008;" horiz-adv-x="221" />
<glyph unicode="&#x2009;" horiz-adv-x="356" />
<glyph unicode="&#x200a;" horiz-adv-x="98" />
<glyph unicode="&#x2010;" horiz-adv-x="610" d="M92 471v234h426v-234h-426z" />
<glyph unicode="&#x2011;" horiz-adv-x="610" d="M92 471v234h426v-234h-426z" />
<glyph unicode="&#x2012;" horiz-adv-x="610" d="M92 471v234h426v-234h-426z" />
<glyph unicode="&#x2013;" horiz-adv-x="1112" d="M178 479v223h754v-223h-754z" />
<glyph unicode="&#x2014;" horiz-adv-x="1384" d="M180 479v223h1022v-223h-1022z" />
<glyph unicode="&#x2018;" horiz-adv-x="385" d="M59 1309q0 80 22.5 137t55.5 96t67 61.5t58 32.5l66 -104q-35 -18 -62.5 -55t-32.5 -80q35 -4 64 -38t29 -93t-36 -95t-89 -36q-66 0 -104 48t-38 126z" />
<glyph unicode="&#x2019;" horiz-adv-x="385" d="M59 1319q0 59 36 96t89 37q66 0 104 -46t38 -128q0 -80 -22.5 -135.5t-54.5 -93t-67 -60t-59 -33.5l-62 103q35 16 62 49t31 80q-35 2 -65 33.5t-30 97.5z" />
<glyph unicode="&#x201a;" horiz-adv-x="385" d="M59 127q0 59 36 96t89 37q66 0 104 -46t38 -128q0 -80 -22.5 -135.5t-54.5 -93t-67 -60t-59 -33.5l-62 103q35 16 62 49t31 80q-35 2 -65 33.5t-30 97.5z" />
<glyph unicode="&#x201c;" horiz-adv-x="700" d="M372 1309q0 80 22.5 137t55.5 96t67 61.5t58 32.5l66 -104q-35 -18 -62.5 -55t-32.5 -80q35 -4 64 -38t29 -93t-36 -95t-89 -36q-66 0 -104 48t-38 126zM59 1309q0 80 22.5 137t55.5 96t67 61.5t58 32.5l66 -104q-35 -18 -62.5 -55t-32.5 -80q35 -4 64 -38t29 -93 t-36 -95t-89 -36q-66 0 -104 48t-38 126z" />
<glyph unicode="&#x201d;" horiz-adv-x="700" d="M372 1319q0 59 36 96t89 37q66 0 104 -46t38 -128q0 -80 -22.5 -135.5t-54.5 -93t-67 -60t-59 -33.5l-62 103q35 16 62 49t31 80q-35 2 -65 33.5t-30 97.5zM59 1319q0 59 36 96t89 37q66 0 104 -46t38 -128q0 -80 -22.5 -135.5t-54.5 -93t-67 -60t-59 -33.5l-62 103 q35 16 62 49t31 80q-35 2 -65 33.5t-30 97.5z" />
<glyph unicode="&#x201e;" horiz-adv-x="698" d="M372 127q0 59 36 96t89 37q66 0 104 -46t38 -128q0 -80 -22.5 -135.5t-54.5 -93t-67 -60t-59 -33.5l-62 103q35 16 62 49t31 80q-35 2 -65 33.5t-30 97.5zM59 127q0 59 36 96t89 37q66 0 104 -46t38 -128q0 -80 -22.5 -135.5t-54.5 -93t-67 -60t-59 -33.5l-62 103 q35 16 62 49t31 80q-35 2 -65 33.5t-30 97.5z" />
<glyph unicode="&#x2022;" horiz-adv-x="761" d="M117 637q0 70 19.5 128t54 99t83 63.5t105.5 22.5q117 0 191.5 -81t74.5 -232q0 -150 -74.5 -230.5t-191.5 -80.5q-115 0 -188.5 80.5t-73.5 230.5z" />
<glyph unicode="&#x2026;" horiz-adv-x="1476" d="M92 133q0 76 40 115t106 39q72 0 110.5 -39t38.5 -115q0 -74 -40 -115t-109 -41q-68 0 -107 41t-39 115zM598 133q0 76 40 115t105 39q72 0 111 -39t39 -115q0 -74 -40 -115t-110 -41q-68 0 -106.5 41t-38.5 115zM1102 133q0 76 40 115t105 39q72 0 111 -39t39 -115 q0 -74 -40 -115t-110 -41q-68 0 -106.5 41t-38.5 115z" />
<glyph unicode="&#x202f;" horiz-adv-x="356" />
<glyph unicode="&#x2039;" horiz-adv-x="524" d="M45 530l268 471l150 -96l-150 -289l-80 -84l80 -73l164 -277l-153 -104z" />
<glyph unicode="&#x203a;" horiz-adv-x="524" d="M47 182l164 277l80 73l-80 84l-150 289l150 96l268 -471l-278 -452z" />
<glyph unicode="&#x2044;" horiz-adv-x="315" d="M-276 55l704 1409l166 -80l-700 -1413z" />
<glyph unicode="&#x205f;" horiz-adv-x="444" />
<glyph unicode="&#x2081;" horiz-adv-x="722" d="M72 440l268 230h168v-680h143v-195h-520v195h160v344l18 94l-53 -66l-94 -63z" />
<glyph unicode="&#x2082;" horiz-adv-x="722" d="M92 -68q47 37 101.5 89.5t100.5 110.5t75.5 118.5t29.5 118.5q0 104 -94 104q-45 0 -84 -13.5t-69 -31.5l-60 170q59 41 129 56.5t129 15.5q123 0 192.5 -64.5t69.5 -187.5q0 -61 -15 -115.5t-40 -102.5t-57.5 -91t-67.5 -82l-80 -52l99 15h184v-195h-543v137z" />
<glyph unicode="&#x2083;" horiz-adv-x="722" d="M100 -170l43 176q76 -39 152 -39q74 0 103.5 31t29.5 80q0 47 -31.5 74.5t-113.5 27.5h-80v78l123 166l77 57l-102 -12h-190v186h491v-123l-143 -192l-62 -39l54 -2q88 -4 138 -64.5t50 -171.5q0 -74 -25.5 -127t-68.5 -87.5t-98.5 -51t-118.5 -16.5q-66 0 -125.5 13 t-102.5 36z" />
<glyph unicode="&#x2084;" horiz-adv-x="720" d="M35 -41v131l364 576h183v-531h125v-176h-125v-164h-195v164h-352zM213 121l88 14h86v172l14 113h-10l-39 -105l-78 -133z" />
<glyph unicode="&#x20ac;" d="M6 479l60 187h81v51v67h-141l60 187h102q8 47 22 90q43 143 116 232t166 129t196 40q86 0 152.5 -14t113.5 -33l-66 -205q-72 33 -194 33q-135 0 -215 -125q-37 -57 -58 -147h426l-47 -187h-401v-67v-51h366l-47 -187h-299q18 -90 56 -153q76 -133 237 -133q129 0 211 53 l49 -197q-53 -39 -136 -57.5t-159 -18.5q-113 0 -206 43t-160.5 134.5t-106.5 230.5q-12 47 -20 98h-158z" />
<glyph unicode="&#x2122;" horiz-adv-x="1640" d="M51 1217v217h625v-217h-191v-521h-243v521h-191zM731 696v738h246l147 -293l37 -129h2l39 133l135 289h244v-738h-209v295l31 211h-10l-60 -174l-104 -240h-154l-106 234l-66 180h-10l43 -207v-299h-205z" />
<glyph unicode="&#x2212;" horiz-adv-x="909" d="M78 588v217h753v-217h-753z" />
<glyph unicode="&#xe000;" horiz-adv-x="1025" d="M0 1025h1025v-1025h-1025v1025z" />
<glyph unicode="&#xf408;" horiz-adv-x="860" d="M123 1511v82l223 189h178l213 -191v-80h-174l-96 84l-35 70l-37 -68l-102 -86h-170z" />
<glyph unicode="&#xf40d;" horiz-adv-x="921" d="M123 1630q59 76 114.5 103.5t108.5 27.5q39 0 78 -11t76 -24l70 -23q34 -11 67 -11q29 0 55.5 11t50.5 40l56 -129q-53 -59 -101.5 -81t-95.5 -22q-39 0 -77 11.5t-73.5 24t-70.5 23.5t-70 11t-67.5 -14.5t-67.5 -55.5z" />
<glyph unicode="&#xf662;" horiz-adv-x="722" d="M80 1221l268 227h166v-875h-215v541l16 94l-53 -67l-90 -64z" />
<glyph unicode="&#xf6c9;" horiz-adv-x="706" d="M123 1540l168 242h293v-62l-271 -180h-190z" />
<glyph unicode="&#xf6cb;" horiz-adv-x="894" d="M123 1634q0 53 31.5 86t109.5 33q72 0 103.5 -32.5t31.5 -86.5q0 -53 -31.5 -84.5t-103.5 -31.5q-78 0 -109.5 31.5t-31.5 84.5zM496 1634q0 53 31.5 86t105.5 33q76 0 107.5 -32.5t31.5 -86.5q0 -53 -31.5 -84.5t-107.5 -31.5q-74 0 -105.5 31.5t-31.5 84.5z" />
<glyph unicode="&#xf6ce;" horiz-adv-x="704" d="M123 1720v62h291l168 -242h-193z" />
<glyph unicode="&#xfb01;" horiz-adv-x="942" d="M18 807v217h111v57q0 195 85 284t249 89q119 0 213 -19.5t153 -50.5l-63 -200q-49 25 -111.5 39t-134.5 14q-47 0 -75.5 -14.5t-45 -42t-21.5 -67.5t-5 -89h473v-1024h-244v807h-229v-807h-244v807h-111z" />
<glyph unicode="&#xfb02;" horiz-adv-x="1007" d="M18 807v217h111v57q0 96 18.5 168t60.5 119t109.5 69.5t163.5 22.5q41 0 93.5 -4t103.5 -9t95 -11t69 -13v-1093q0 -135 61 -135q18 0 36.5 4t45.5 16l27 -195q-29 -16 -86.5 -32.5t-124.5 -16.5q-100 0 -151.5 52.5t-51.5 175.5v1030q-18 4 -51 9t-64 5q-72 0 -91 -53 t-19 -166h116v-217h-116v-807h-244v807h-111z" />
<glyph unicode="&#xfb03;" horiz-adv-x="1554" d="M1203 0v1024h243v-1024h-243zM1174 1313q0 61 39 101t110 40q72 0 115 -39t43 -102t-43 -100t-115 -37t-110.5 38t-38.5 99zM563 807v217h111v57q0 195 72.5 282t208.5 87q135 0 225 -37l-45 -207q-37 14 -65.5 17.5t-59.5 3.5q-59 0 -75.5 -46t-16.5 -157h174v-217h-174 v-807h-244v807h-111zM16 807v217h111v57q0 195 72.5 282t208.5 87q135 0 225 -37l-45 -207q-37 14 -65.5 17.5t-59.5 3.5q-59 0 -75.5 -46t-16.5 -157h174v-217h-174v-807h-244v807h-111z" />
<glyph unicode="&#xfb04;" horiz-adv-x="1591" d="M1186 201v1233h244v-1102q0 -72 14.5 -102.5t46.5 -30.5q18 0 38 4t44 14l23 -197q-25 -16 -84.5 -30.5t-120.5 -14.5q-102 0 -153.5 51.5t-51.5 174.5zM563 807v217h111v57q0 195 72.5 282t208.5 87q135 0 225 -37l-45 -207q-37 14 -65.5 17.5t-59.5 3.5 q-59 0 -75.5 -46t-16.5 -157h174v-217h-174v-807h-244v807h-111zM16 807v217h111v57q0 195 72.5 282t208.5 87q135 0 225 -37l-45 -207q-37 14 -65.5 17.5t-59.5 3.5q-59 0 -75.5 -46t-16.5 -157h174v-217h-174v-807h-244v807h-111z" />
<glyph horiz-adv-x="309" d="M-428 92l1014 1370l143 -119l-1012 -1372z" />
</font>
</defs>
</svg>
