<?xml version="1.0" standalone="no"?>
<!DOCTYPE svg PUBLIC "-//W3C//DTD SVG 1.1//EN" "http://www.w3.org/Graphics/SVG/1.1/DTD/svg11.dtd" >
<svg xmlns="http://www.w3.org/2000/svg">
<metadata>
This is a custom SVG webfont generated by Font Squirrel.
Copyright   : Copyright c 2011 by Pablo Impallari wwwimpallaricom All rights reserved
Designer    : Pablo Impallari
Foundry     : Pablo Impallari wwwimpallaricom
Foundry URL : wwwimpallaricom
</metadata>
<defs>
<font id="DancingScriptRegular" horiz-adv-x="1212" >
<font-face units-per-em="2048" ascent="1638" descent="-410" />
<missing-glyph horiz-adv-x="530" />
<glyph unicode=" "  horiz-adv-x="530" />
<glyph unicode="&#x09;" horiz-adv-x="530" />
<glyph unicode="&#xa0;" horiz-adv-x="530" />
<glyph unicode="!" horiz-adv-x="532" d="M-43 35q0 33 39 58.5t80 25.5q53 0 53 -49q0 -31 -34 -60.5t-72 -29.5q-66 0 -66 55zM82 211q0 96 113 389l79 207l78 192q49 121 82 189l76 143q41 76 73.5 110t59.5 34q16 0 28.5 -13.5t12.5 -34.5q0 -82 -240.5 -560t-361.5 -656z" />
<glyph unicode="&#x22;" horiz-adv-x="501" d="M268 1255q0 68 41 144t84 76q20 0 35.5 -17.5t15.5 -40.5q-18 -18 -34.5 -39.5t-26.5 -38t-23.5 -42t-19.5 -37.5l-21 -41q-14 -29 -16 -39q-35 20 -35 75zM514 1255q0 68 41 144t84 76q20 0 35.5 -17.5t15.5 -40.5q-18 -18 -34.5 -39.5t-27 -38t-24.5 -41.5l-18 -38 l-19 -41q-14 -29 -18 -39q-35 20 -35 75z" />
<glyph unicode="#" horiz-adv-x="1368" d="M18 317q10 133 443 144q18 94 28 131q-254 -18 -278 -21l-117 -10q10 131 420 141l78 385q45 229 59 295q6 25 11.5 38.5t26 29.5t54.5 25q-6 -27 -26 -140l-55 -295l-64 -335h8q90 0 254 -9l139 686q6 25 11.5 38.5t26 29.5t55.5 25q-6 -27 -27 -144l-57 -299l-66 -340 q55 -2 142 -8t153 -10t119 -4q-76 -66 -207 -66q-45 0 -119 -1t-104 -1q-29 -145 -31 -156q358 -20 383 -20q-76 -66 -205 -66q-137 0 -196 -2q-31 -156 -53.5 -250t-51.5 -188t-58.5 -143t-68.5 -79t-88 -30q94 115 227 684h-258l-45 -209q-16 -76 -40.5 -167t-45 -138 t-49.5 -91t-62.5 -61.5t-74.5 -17.5q94 115 225 680q-131 -6 -301 -20zM549 461q94 0 258 -8l33 147q-113 0 -265 -4z" />
<glyph unicode="$" horiz-adv-x="1087" d="M2 195q0 127 83 197.5t179 70.5q-113 -123 -112 -273q0 -104 63.5 -165.5t181.5 -73.5q66 221 148 588q-70 41 -104.5 64.5t-84 67.5t-71 97t-21.5 119q0 166 131 293t314 155q0 4 6 29t10 35t14.5 28.5t27.5 29.5t44 18q-14 -72 -25 -134q129 0 180.5 -55t51.5 -158 q0 -162 -98 -329q-35 8 -53.5 31.5t-18.5 54t38 145.5t38 162q0 100 -148 100l-121 -639q68 -37 107 -62.5t88 -69.5t71.5 -100t22.5 -128q0 -174 -135 -282.5t-328 -125.5q-82 -217 -205 -217q45 57 101 217q-162 10 -268.5 89.5t-106.5 220.5zM393 938q0 -84 48 -138.5 t139 -105.5l118 590q-133 -29 -219 -131t-86 -215zM502 -49q139 14 220 90t81 190q0 152 -180 263q-90 -451 -121 -543z" />
<glyph unicode="%" horiz-adv-x="1429" d="M160 -178q137 137 451.5 700t428.5 860q10 31 67.5 62t104.5 31q-39 -98 -294.5 -589t-378.5 -687q-117 -186 -207 -281.5t-172 -95.5zM201 932q0 150 87 294t210 144q78 0 125 -58.5t47 -154.5q0 -145 -89 -295.5t-212 -150.5q-82 0 -125 63.5t-43 157.5zM313 915 q0 -127 68 -127q70 0 126 130.5t56 255.5q0 123 -65 122q-82 0 -133.5 -131t-51.5 -250zM862 221q0 150 87 294t210 144q78 0 125 -58t47 -155q0 -145 -89 -295.5t-212 -150.5q-82 0 -125 63.5t-43 157.5zM975 207q0 -129 67 -129q70 0 126.5 130t56.5 255q0 123 -66 123 q-82 0 -133 -130t-51 -249z" />
<glyph unicode="&#x26;" horiz-adv-x="1261" d="M-6 195q0 190 155.5 350t374.5 180q-156 129 -155 324q0 168 121.5 296t302.5 128q223 0 223 -218q0 -113 -52.5 -213t-103.5 -100q-45 0 -76 66q168 147 168 280q0 66 -34.5 105t-104.5 39q-137 0 -216 -122t-79 -296q0 -207 119 -309q-197 -33 -325 -189t-128 -328 q0 -117 64.5 -207t197.5 -90q213 0 391.5 200t206.5 450q-92 -4 -219 -29l-49 -10q6 143 213 143q68 0 173.5 -17.5t140.5 -17.5q-31 -66 -86 -65q-47 -2 -119 -2q-29 -285 -238 -503t-467 -218q-180 0 -289.5 107.5t-109.5 265.5z" />
<glyph unicode="'" horiz-adv-x="256" d="M268 1255q0 68 41 144t84 76q20 0 35.5 -17.5t15.5 -40.5q-18 -18 -34.5 -39.5t-26.5 -38t-23.5 -42t-19.5 -37.5l-21 -41q-14 -29 -16 -39q-35 20 -35 75z" />
<glyph unicode="(" horiz-adv-x="528" d="M117 387q0 186 48 362.5t120.5 304.5t158.5 225t166 146.5t135 49.5q-256 -182 -382.5 -494.5t-126.5 -648.5q0 -307 96 -467q-12 -29 -41 -43q-76 45 -125 204.5t-49 360.5z" />
<glyph unicode=")" horiz-adv-x="548" d="M-125 -129q229 162 377.5 448.5t148.5 653.5q0 301 -145 502q94 -25 172 -183.5t78 -400.5q0 -217 -70.5 -425t-169 -343t-194 -218t-152.5 -83q-25 6 -45 49z" />
<glyph unicode="*" horiz-adv-x="800" d="M238 1171q39 2 239 11q-98 162 -98 235q0 20 29 53q88 -188 139 -266l20 41l19 45q6 14 18 38t19.5 35t18.5 29.5t22 28.5l22 23q12 10 26.5 16t28.5 10q-14 -39 -67 -145t-70 -143q92 6 107 6q123 0 176 -60l-266 -24q6 -10 27.5 -42t30.5 -48.5t23.5 -47t19.5 -64.5 t5 -75q-35 41 -182 263q-63 -123 -112.5 -188.5t-98.5 -65.5q25 35 45 70.5t31.5 59t30 66.5t32.5 72h-53q-166 -1 -182 67z" />
<glyph unicode="+" horiz-adv-x="835" d="M6 295q33 94 326 100v103q0 129 59 211q16 -141 19 -314q180 -2 327 -18q-82 -59 -211 -60h-116q-6 -305 -101 -340q23 141 23 340q-189 1 -326 -22z" />
<glyph unicode="," horiz-adv-x="401" d="M-20 -104q0 68 40.5 143.5t83.5 75.5q20 0 36 -17.5t16 -40.5q-18 -18 -35 -39.5t-27 -38t-23.5 -42t-19.5 -37.5l-20 -41q-14 -29 -17 -39q-34 21 -34 76z" />
<glyph unicode="-" horiz-adv-x="991" d="M74 295q37 100 387 100q166 0 344 -18q-82 -59 -211 -60h-195q-184 1 -325 -22z" />
<glyph unicode="." horiz-adv-x="438" d="M16 35q0 33 39 58.5t80 25.5q53 0 53 -49q0 -31 -33.5 -60.5t-72.5 -29.5q-66 0 -66 55z" />
<glyph unicode="/" horiz-adv-x="675" d="M-139 -332q190 190 778 1714q10 31 67.5 62t104.5 31q-100 -260 -592 -1430q-76 -178 -172 -277.5t-186 -99.5z" />
<glyph unicode="0" horiz-adv-x="1290" d="M109 356q0 240 91 495t267 439.5t383 184.5q186 0 295.5 -137.5t109.5 -366.5q0 -279 -97 -542t-274 -435t-384 -172q-193 0 -292 152.5t-99 381.5zM281 313q0 -193 66.5 -307.5t180.5 -114.5q147 0 282.5 187.5t212.5 446.5t77 489q0 186 -59.5 295.5t-188.5 109.5 q-131 0 -244.5 -118.5t-181.5 -295t-106.5 -361t-38.5 -331.5z" />
<glyph unicode="1" horiz-adv-x="747" d="M-94 -94q41 -4 65 -4q90 0 222 22q74 172 182 716t112 556q-190 -135 -235 -135q-27 0 -39 12t-12 47q68 35 198.5 139.5t231.5 215.5q18 -16 18 -64q0 -37 -21.5 -118t-25.5 -111q-125 -848 -311 -1243q43 6 82 6q86 0 136 -24.5t62 -90.5q-92 10 -161 10 q-68 0 -181.5 -9t-167.5 -9q-41 0 -84.5 22.5t-70.5 61.5z" />
<glyph unicode="2" horiz-adv-x="1144" d="M-39 0q0 98 154 98q72 0 215 -28q205 182 377 492t172 566q0 147 -59.5 219t-157.5 72q-131 0 -206 -116.5t-75 -296.5q0 -72 25 -140h-11q-74 18 -108.5 59.5t-34.5 123.5q0 170 126 298t316 128q147 0 237.5 -106.5t90.5 -266.5q0 -190 -96 -404q-80 -178 -215.5 -354 t-282.5 -297l57 -12q274 -63 383 -64q70 0 156 52q-49 -201 -209 -201q-113 0 -393 119q-12 4 -42 17t-46 19q-137 -88 -234 -88q-61 0 -100 31t-39 80zM25 -4q0 -23 22.5 -37t50.5 -14q59 0 154 63q-104 37 -156 37q-37 0 -54 -15.5t-17 -33.5z" />
<glyph unicode="3" horiz-adv-x="1044" d="M12 113q0 86 45 153.5t121 67.5q27 0 37 -2q-29 -25 -47 -80t-18 -111q0 -102 60 -178t157 -76q127 0 229 130t102 327q0 135 -54 239.5t-173 135.5q145 66 238.5 215t93.5 287q0 102 -53.5 150t-131.5 48q-92 0 -162.5 -60.5t-70.5 -160.5q0 -70 33 -137 q-10 -23 -36 -40t-46 -17q-35 0 -55.5 51t-20.5 110q0 141 117 225.5t266 84.5q131 0 223 -69t92 -196q0 -141 -106.5 -286.5t-251.5 -184.5q160 -41 233.5 -154.5t73.5 -240.5q0 -201 -163.5 -361.5t-395.5 -160.5q-172 0 -254 89t-82 202z" />
<glyph unicode="4" horiz-adv-x="978" d="M-16 453q0 55 36 86q78 92 265.5 268t351.5 348t248 320q23 -8 22 -54q0 -47 -39 -112q-57 -242 -147 -719h86q78 0 123 12q-37 -53 -91.5 -87t-93.5 -34h-45q-16 -82 -22 -123q-20 -109 -45 -294t-25 -242q-158 14 -157 96q8 76 57 348q2 16 45 217q-33 0 -90 1t-80 1 q-241 1 -399 -32zM164 590q74 10 207 10q84 0 207 -4q82 362 129 520q-66 -68 -241 -228.5t-247 -238.5q-12 -12 -29.5 -31.5t-25.5 -27.5z" />
<glyph unicode="5" horiz-adv-x="989" d="M-6 111q0 88 45 155.5t121 67.5q27 0 37 -2q-66 -55 -66 -199q0 -104 51 -175t158 -71q154 0 249 145.5t95 323.5q0 139 -67.5 229.5t-206.5 90.5q-76 0 -189 -23q12 84 55 248l97 342l61 217q106 -27 217 -26q121 0 318 41q8 -31 8 -56q0 -82 -74 -117.5t-178 -35.5 q-57 0 -131 13t-92.5 13t-26.5 -7t-20 -34q-25 -57 -62 -184t-65.5 -239.5t-28.5 -114.5q96 20 178 20q199 0 302.5 -106.5t103.5 -280.5q0 -223 -154 -373.5t-389 -150.5q-180 0 -263 88t-83 201z" />
<glyph unicode="6" horiz-adv-x="1148" d="M100 328q0 117 26 247t73 258t117.5 243.5t155.5 204.5t193.5 141.5t223.5 52.5q88 0 140 -30t52 -89q0 -70 -94 -99q0 10 2 26.5t2 31.5q0 113 -112 112q-123 0 -239 -124.5t-190.5 -298t-121.5 -371.5q143 133 346 133q164 0 269.5 -100.5t105.5 -296.5 q0 -233 -149.5 -390t-381.5 -157q-217 0 -317.5 139.5t-100.5 366.5zM283 287q0 -66 10 -128.5t34.5 -127t77 -104.5t123.5 -40q150 0 246 154t96 340q0 156 -72.5 235.5t-183.5 79.5q-174 0 -252.5 -115.5t-78.5 -293.5z" />
<glyph unicode="7" horiz-adv-x="825" d="M121 592q2 57 50 89t102.5 38t136.5 6h49q63 121 188 330l150 245q-35 0 -158 -6t-172 -6q-209 0 -209 96q0 37 27 86q18 -2 76.5 -13t87 -15t87 -8t123.5 -4q223 0 345 40q-63 -102 -111 -153q-166 -244 -328 -598q188 -10 203 -10q41 0 66 6q-72 -104 -162 -105 q-88 0 -156 2l-37 -88q-29 -68 -41 -102l-37 -100q-23 -63 -36 -106.5t-22 -96.5t-9 -96q0 -59 24 -78q-29 -61 -78 -92t-85 -31q-29 0 -49.5 24.5t-20.5 67.5q0 145 274 698q-176 -4 -278 -20z" />
<glyph unicode="8" horiz-adv-x="1079" d="M59 158q0 49 11.5 93t42.5 89l51 72q20 29 75.5 76t79.5 65l95 70l88 65q-111 121 -170.5 221.5t-59.5 225.5q0 168 114 253t265 85q141 0 225.5 -77t84.5 -218q0 -137 -77 -245t-216 -218q86 -94 128 -144.5t86 -141.5t44 -179q0 -190 -154 -309t-354 -119 q-186 0 -272.5 103.5t-86.5 232.5zM184 164q0 -117 77 -189.5t177 -72.5q121 0 220.5 97t99.5 243q0 104 -52.5 191t-150.5 196q-94 -68 -141 -107t-110.5 -101.5t-91.5 -124.5t-28 -132zM432 1161q0 -104 47 -194t135 -191q227 190 228 404q0 115 -54.5 176t-134.5 61 q-84 0 -152.5 -63.5t-68.5 -192.5z" />
<glyph unicode="9" horiz-adv-x="1159" d="M176 946q0 227 143.5 378t368.5 151t330.5 -148.5t105.5 -388.5q0 -176 -53 -369.5t-146.5 -361.5t-238.5 -276.5t-311 -108.5q-197 0 -197 123q0 66 90 94q0 -10 -1 -24.5t-1 -26.5q0 -119 117 -119q94 0 181 70.5t151.5 188.5t113 254t76.5 282q-133 -133 -340 -134 q-168 0 -278.5 105.5t-110.5 310.5zM354 934q0 -166 77 -250t192 -84q158 0 235.5 96.5t77.5 264.5q0 84 -11.5 156.5t-38 142t-79.5 109.5t-127 40q-143 0 -234.5 -146.5t-91.5 -328.5z" />
<glyph unicode=":" horiz-adv-x="442" d="M20 35q0 33 39 58.5t80 25.5q53 0 54 -49q0 -31 -34 -60.5t-73 -29.5q-66 0 -66 55zM143 547q0 33 39 58.5t80 25.5q53 0 53 -49q0 -31 -33.5 -60.5t-72.5 -29.5q-66 0 -66 55z" />
<glyph unicode=";" horiz-adv-x="436" d="M2 -104q0 68 41 143.5t84 75.5q20 0 35.5 -17.5t15.5 -40.5q-18 -18 -34.5 -39.5t-27 -38t-24.5 -42.5l-18 -37l-19 -41q-14 -29 -18 -39q-35 21 -35 76zM143 547q0 33 39 58.5t80 25.5q53 0 53 -49q0 -31 -33.5 -60.5t-72.5 -29.5q-66 0 -66 55z" />
<glyph unicode="&#x3c;" horiz-adv-x="634" d="M43 324q100 43 212 137t177 186q10 -16 10 -45q0 -121 -346 -301q57 -41 88 -61.5t92.5 -51t151.5 -65.5q-29 -33 -59 -33q-74 0 -192 86.5t-134 147.5z" />
<glyph unicode="=" horiz-adv-x="1030" d="M106 217q37 100 388 100q166 0 344 -18q-82 -59 -211 -59h-207q-177 0 -314 -23zM106 422q37 100 388 100q166 0 344 -18q-82 -59 -211 -60h-207q-177 1 -314 -22z" />
<glyph unicode="&#x3e;" horiz-adv-x="663" d="M125 602q0 29 10 45q66 -92 177.5 -186t211.5 -137q-16 -61 -134 -147.5t-191 -86.5q-31 0 -60 33q90 35 151.5 65.5t92.5 51t88 61.5q-346 180 -346 301z" />
<glyph unicode="?" horiz-adv-x="894" d="M221 1024q0 180 123 315.5t307 135.5q129 0 203 -71t74 -202q0 -84 -33 -157.5t-84 -133.5l-102 -120q-53 -59 -104.5 -139.5t-76.5 -166.5q-12 -41 -23 -117.5t-28 -113.5q-39 20 -51 37.5t-12 58.5q0 90 40 175t99 157l115 145q57 72 97 165t40 194q0 111 -45 171 t-117 60q-113 0 -211 -130t-98 -304q0 -49 14 -117q-74 12 -100.5 51t-26.5 107zM328 33q0 35 37.5 60.5t80.5 25.5q53 0 54 -45q0 -35 -33 -64.5t-74 -29.5q-27 0 -46 14t-19 39z" />
<glyph unicode="@" horiz-adv-x="1193" d="M6 180q0 246 186.5 437.5t466.5 191.5q211 0 322 -109.5t111 -261.5q0 -156 -107.5 -288t-249.5 -132q-131 0 -131 121q0 12 4 41q-141 -190 -268 -190q-53 0 -87 34.5t-34 100.5q0 154 150.5 329t304.5 175q63 0 106 -34t43 -89q0 -70 -82 -70q8 23 9 56q0 92 -78 92 q-111 0 -225.5 -167t-114.5 -294q0 -66 45 -66q37 0 83 35t101 103.5t84 107.5l76 111q20 -2 42.5 -13.5t22.5 -27.5q0 -14 -47 -98.5t-47 -133.5q0 -68 70 -67q96 0 180 110.5t84 241.5t-92 226.5t-275 95.5q-250 0 -414.5 -178.5t-164.5 -397.5q0 -156 92 -262.5 t283 -106.5q240 0 438 174l12 -16q-184 -209 -463 -209q-217 0 -326.5 124t-109.5 304z" />
<glyph unicode="A" d="M-35 -72q0 154 311 641q-125 10 -221 11h-71q39 106 213 106q53 0 147 -14q158 238 320.5 447.5t257.5 297.5q59 57 98 58q43 0 108 -66q-68 -53 -193.5 -509t-125.5 -707q0 -164 76 -164q113 0 268 303l21 -21q-63 -168 -158.5 -270t-196.5 -102q-160 0 -160 274 q0 131 35 305q-131 20 -303 41q-201 -369 -356 -737q-70 38 -70 106zM444 653l150 -35q96 -23 115 -28q86 403 245 756q-186 -115 -510 -693z" />
<glyph unicode="B" horiz-adv-x="1245" d="M39 -14q0 6 10 6q4 0 24.5 -5t63.5 -10.5t105 -5.5q344 0 579.5 146.5t235.5 339.5q0 258 -516 258q-29 0 -80 -1t-74 -1l-184 -660q-51 0 -86 29t-35 70q0 18 29 116q33 111 90 283t159.5 440.5t184.5 425.5q-76 -14 -140.5 -41.5t-99.5 -48t-43 -20.5q-16 0 -40.5 20.5 t-24.5 34.5q90 37 143 56.5t147.5 38t194.5 18.5q82 0 153.5 -12.5t149.5 -43t124 -100.5t46 -170q0 -322 -469 -399q467 -29 467 -330q0 -141 -94 -260t-235.5 -189.5t-289 -109.5t-268.5 -39q-227 0 -227 164zM399 760q121 4 226.5 26.5t201 67.5t150.5 125t55 186 q0 266 -346 267q-27 0 -39 -2q-121 -236 -248 -670z" />
<glyph unicode="C" horiz-adv-x="1093" d="M45 322q0 197 78 406.5t196.5 372.5t272 267.5t295.5 104.5q188 0 188 -177q0 -127 -78.5 -281.5t-158.5 -154.5q-41 0 -64 47q76 86 147.5 209t71.5 203q0 92 -100 92q-141 0 -304 -183.5t-271.5 -449.5t-108.5 -491q0 -168 71.5 -282t217.5 -114q158 0 315.5 129.5 t241.5 311.5l28 -21q-111 -217 -275.5 -353t-358.5 -136q-203 0 -303.5 145.5t-100.5 354.5z" />
<glyph unicode="D" horiz-adv-x="1337" d="M115 -86q53 256 170.5 636t183.5 552q74 193 160 192q29 0 57 -20q-123 -285 -249 -684.5t-193 -706.5q49 -8 88 -8q211 0 405.5 159t311 404.5t116.5 497.5q0 240 -112.5 361.5t-307.5 121.5q-201 0 -335 -114.5t-134 -284.5q0 -45 11 -76q-123 0 -123 115 q0 150 194.5 283t448.5 133q260 0 385 -154t125 -408q0 -215 -87 -418.5t-225.5 -350t-315.5 -234.5t-355 -88q-153 0 -219 92z" />
<glyph unicode="E" horiz-adv-x="1019" d="M-31 195q0 190 156 350t375 180q-156 129 -156 324q0 168 122 296t300 128q113 0 173 -57.5t60 -164.5q0 -111 -55 -210t-108 -99q-45 0 -76 66q172 150 172 284q0 133 -146 133q-137 0 -214.5 -117.5t-77.5 -293.5q0 -207 118 -309q-197 -33 -324.5 -189t-127.5 -328 q0 -117 64.5 -207t197.5 -90q158 0 315.5 129.5t241.5 311.5l29 -21q-115 -221 -279 -355t-360 -134q-180 0 -290 107.5t-110 265.5z" />
<glyph unicode="F" horiz-adv-x="987" d="M135 1104q0 158 163 259t400 101q74 0 209 -15t199 -15q82 0 151 20q-72 -82 -123 -112.5t-108 -30.5q-35 0 -137 14l-154 21q-57 -139 -196 -580q66 -4 186.5 -17.5t171.5 -15.5q-33 -47 -93.5 -57t-295.5 -14l-90 -306q-102 -344 -107 -534q-86 6 -112.5 45t-26.5 117 q0 31 5 66.5t20 86.5l24 86q10 37 35 107l35 100q10 31 43 117l39 106q-51 -4 -158 -18l-70 -10q8 135 269 143q133 367 237 584q-53 4 -80 4q-190 0 -258.5 -58.5t-68.5 -191.5q0 -84 26 -162q-135 23 -135 160z" />
<glyph unicode="G" horiz-adv-x="1134" d="M45 330q0 256 128 525t326.5 443.5t387.5 174.5q109 0 161 -66t52 -166q0 -111 -54.5 -205t-125.5 -94q-41 0 -64 47q49 35 104.5 135.5t55.5 178.5q0 109 -121 108h-2q-141 0 -304 -184.5t-271.5 -450.5t-108.5 -487q0 -182 76.5 -290t197.5 -108q152 0 273 201t137 420 q-119 27 -211 27q-16 0 -57 -1t-68 -1q25 106 139 106q68 0 202 -47t144 -49l-14 -66q-125 -326 -125 -499q0 -31 4 -85.5t4 -74.5q-111 43 -110 145q0 47 14 96q-174 -242 -385 -241h-2q-166 0 -274.5 136t-108.5 372z" />
<glyph unicode="H" horiz-adv-x="1263" d="M113 -178q49 279 225 821l-135 -14q2 90 170 125l174 514q29 84 28 118q0 31 -28 31q-92 0 -173 -136t-81 -249q0 -39 10 -69q-123 0 -123 116q0 133 144.5 264.5t265.5 131.5q94 0 94 -99q0 -35 -16 -88l-160 -520q74 4 119 4q160 0 348 -18q152 498 207 614 q49 106 112 107q-86 -227 -215 -730q20 0 72.5 -4t81.5 -4q-61 -66 -168 -65h-4q-43 -176 -64 -281q-68 -317 -67 -489v-6q0 -37 4 -74q-78 8 -109.5 44t-31.5 116q0 119 49 309q33 135 108 379q-342 -2 -477 -15q-176 -555 -219 -702q-20 -66 -61 -98.5t-80 -32.5z" />
<glyph unicode="I" horiz-adv-x="940" d="M-78 -180q6 53 33 88t77 50t99 20.5t125 5.5q86 186 217 743t156 627q-272 -6 -461 -41q29 158 414 157h4q248 0 536 -43q-72 -72 -194 -71h-4q-160 0 -224 -2q-152 -815 -202 -1022q-72 -283 -172 -350q59 -4 215.5 -20.5t228.5 -18.5q-88 -88 -231 -88h-125 q-100 0 -136 -2.5t-111 -5.5t-131.5 -10t-113.5 -17z" />
<glyph unicode="J" horiz-adv-x="841" d="M-63 90q0 129 44 236.5t111 107.5q25 0 58 -16q-74 -188 -74 -328q0 -195 127 -194h2q55 0 96 47t86 168q72 199 165 592t144 663q-252 -2 -413 -41q23 145 333 145q201 0 428 -43q-35 -59 -157 -59q-29 0 -77 -1t-69 -1q43 -35 43 -96q0 -100 -92 -504t-198 -641 q-76 -172 -156 -236.5t-180 -64.5q-221 0 -221 266z" />
<glyph unicode="K" horiz-adv-x="1208" d="M61 -141l37 86q18 45 45 116l50 134l63 188l78 225l102 299l123 361q27 74 27 100q0 49 -49 49q-92 0 -173 -136t-81 -249q0 -39 10 -69q-123 0 -123 116q0 133 144.5 264.5t265.5 131.5q94 0 94 -99q0 -35 -17 -88l-172 -557q14 18 36 40t38 36l51 39l52 41 q154 123 312.5 284.5t246.5 303.5q18 -25 18 -91q0 -223 -745 -725l98 -165q27 -45 92.5 -140.5t117.5 -154t136 -142.5t186 -168q-35 -68 -108 -67h-2q-100 0 -279.5 263t-292.5 511l-198 -643q-10 -33 -29.5 -54.5t-49.5 -28.5t-49.5 -9t-54.5 -2z" />
<glyph unicode="L" horiz-adv-x="1167" d="M-152 70q0 90 150 90q90 0 252 -43q35 59 71.5 153.5t58 156.5t66.5 206l60 186q-94 31 -148.5 90.5t-54.5 128.5q0 59 36 110.5t91 51.5q-27 -37 -27 -127q0 -147 117 -211q45 137 86 235.5t95.5 190.5t120 139.5t139.5 47.5q76 0 137 -49.5t61 -159.5q0 -74 -30.5 -154 t-88 -152.5t-155 -118.5t-217.5 -46h-33q-174 -524 -295 -705q18 -6 92 -29l100 -30q25 -8 88.5 -24.5t98.5 -24t81 -13.5t83 -6q82 0 145 33q-61 -174 -215 -174q-53 0 -128 21.5t-119 40t-152.5 68.5t-132.5 60q-109 -121 -228 -121q-92 0 -148.5 60t-56.5 119zM-98 67.5 q0 -38.5 43 -77.5t100 -39q86 0 158 94q-152 61 -234 61q-67 0 -67 -38.5zM647 834q168 2 285 172t117 315q0 102 -74 102q-45 0 -88 -43t-86 -138t-74 -179t-80 -229z" />
<glyph unicode="M" horiz-adv-x="1562" d="M-35 -178l649 1440q20 45 21 84q0 53 -70 53q-121 0 -187.5 -116t-66.5 -257q0 -27 4 -63q-53 0 -80.5 53t-27.5 114q0 131 130 238t269 107q106 0 156.5 -97.5t50.5 -361.5q0 -145 -20.5 -437t-22.5 -370q49 188 182 456.5t231.5 430t170.5 268.5q23 33 34 47t28.5 25.5 t39.5 11.5q29 0 66 -14q-51 -123 -92 -287q-70 -270 -128.5 -621.5t-58.5 -535.5q0 -33 3 -56.5t5 -35t10.5 -36t12.5 -40.5q-102 0 -135 49t-33 180q0 154 32.5 354.5t67.5 346.5l105 403q-131 -168 -299 -537.5t-250 -611.5q-23 -8 -31 -8q-51 0 -70.5 60.5t-19.5 189.5 q0 113 16.5 438.5t16.5 431.5q0 57 -4 115l-135 -315l-113 -275l-94 -227l-82 -191l-70 -149q-37 -74 -60.5 -116t-51 -77t-51 -48t-48.5 -13z" />
<glyph unicode="N" horiz-adv-x="1310" d="M94 -178q29 111 82 284l152 496l200 666q14 51 15 84q0 47 -31 47q-92 0 -165 -126t-73 -239q0 -41 11 -71q-123 0 -123 116q0 135 142 265.5t267 130.5q39 0 71 -22.5t55.5 -73t40 -98.5t30.5 -135t21.5 -145.5t19.5 -164.5q43 -383 90 -689q37 250 164 692.5t166 534.5 q14 33 51 67t78 34q-119 -315 -262.5 -872.5t-145.5 -780.5q-66 0 -104.5 38t-54.5 128q-55 291 -187 1218q-274 -985 -346 -1171q-68 -186 -133 -209q-15 -4 -31 -4z" />
<glyph unicode="O" horiz-adv-x="1275" d="M43 330q0 193 78 400.5t198.5 369.5t274.5 267.5t297 105.5q76 0 123 -25h-23q-127 0 -267 -109.5t-248.5 -276.5t-180.5 -373t-72 -388q0 -178 68.5 -294t206.5 -116q182 0 337.5 186.5t237.5 447.5t82 509q0 104 -22.5 193.5t-69.5 89.5q-70 0 -159 -153.5t-118 -284.5 q-98 23 -98 100q0 109 134 251t237 142q49 0 86 -38t54.5 -101.5t25.5 -126t8 -129.5q0 -266 -78 -492.5t-197.5 -367t-257 -218t-264.5 -77.5q-176 0 -284.5 139.5t-108.5 368.5z" />
<glyph unicode="P" horiz-adv-x="1079" d="M37 -76q0 31 29 113l163 504q59 176 149.5 413.5t190.5 464.5q-70 -14 -135 -41.5t-103 -49t-46 -21.5q-14 0 -39 20.5t-25 34.5q262 113 453 113q127 0 243.5 -42t199.5 -135.5t83 -218.5q0 -121 -69.5 -213t-165 -139t-215 -76.5t-196.5 -37t-134 -7.5h-21l-221 -784 q-55 0 -98 29.5t-43 72.5zM408 639q119 6 230.5 38t208.5 87t156.5 146t59.5 204q0 156 -106.5 236t-264.5 82q-124 -248 -284 -793z" />
<glyph unicode="Q" horiz-adv-x="1419" d="M72 403q0 258 108.5 504t298 407t404.5 161q195 0 305 -133.5t110 -364.5q0 -260 -132 -546t-330 -439q170 -94 303 -94q37 0 118 24q-49 -166 -200 -166q-59 0 -122 28t-102.5 57.5t-103.5 82.5q-106 -53 -205 -53q-66 0 -114 21.5t-70.5 53t-31.5 58.5t-9 47 q0 41 38 74t112 33q53 0 113.5 -21.5t99 -43t112.5 -66.5q170 154 275.5 463t105.5 552q0 176 -66.5 276.5t-203.5 100.5q-141 0 -270.5 -109.5t-215.5 -276.5t-136 -363.5t-50 -374.5q0 -96 16 -172q-157 -1 -157 280zM352 49q0 -41 40 -84t132 -43q80 0 160 43 q-158 139 -256 139q-76 0 -76 -55z" />
<glyph unicode="R" horiz-adv-x="1181" d="M33 -76q0 31 28 113q258 797 519 1386q-76 -12 -147 -41.5t-110.5 -52t-48.5 -22.5q-14 0 -38.5 20.5t-24.5 34.5q260 113 461 113q127 0 239.5 -37t195.5 -127t83 -219q0 -115 -67.5 -202t-159 -131t-209 -72t-193.5 -34t-135 -6l80 -137l82 -145q27 -45 83 -130 t104 -141.5t122 -130.5t158 -143q-12 -27 -44 -47.5t-61 -20.5q-72 0 -188.5 147.5t-216 328t-166.5 339.5l-211 -745q-53 0 -94 29.5t-41 72.5zM412 680q162 10 300 56t239.5 149.5t101.5 249.5q0 156 -105.5 226.5t-261.5 70.5q-122 -244 -274 -752z" />
<glyph unicode="S" horiz-adv-x="1097" d="M-12 188q0 145 79.5 210t182.5 65q-113 -123 -113 -275q0 -123 81 -204.5t232.5 -81.5t266 79.5t114.5 219.5q0 96 -64.5 173t-156.5 132l-182 108q-90 55 -154.5 134t-64.5 180q0 119 69.5 242.5t208 214t306.5 90.5q215 0 215 -205q0 -102 -49.5 -229.5t-108.5 -221.5 q-68 14 -68 88q0 57 60.5 214t60.5 216q0 88 -115 88q-180 0 -315 -153.5t-135 -296.5q0 -84 63.5 -150.5t153.5 -115.5l178 -105q90 -53 153.5 -142t63.5 -204q0 -199 -163.5 -317.5t-370.5 -118.5q-180 0 -304 95t-124 271z" />
<glyph unicode="T" horiz-adv-x="1003" d="M141 1294q14 180 500 181q154 0 363.5 -22.5t295.5 -22.5q-109 -96 -350 -97q-23 0 -72 1t-73 1q-168 -420 -322 -977q-6 -23 -21.5 -77t-21.5 -74l-14 -64q-10 -43 -16 -63l-11 -53q-8 -35 -11 -57.5t-5 -50.5t-2 -52q0 -31 2 -45q-162 0 -162 145q0 80 76 299 q227 659 418 1069q-367 -6 -574 -41z" />
<glyph unicode="U" horiz-adv-x="1445" d="M51 1104q0 133 119 252t272 119q211 0 211 -248q0 -154 -126 -553.5t-126 -540.5q0 -102 42 -165.5t130 -63.5q80 0 153 54t125 142t88 178.5t58 180.5l84 342q33 127 86.5 309t100.5 273.5t86 91.5q41 0 102 -66q-61 -43 -219 -552t-158 -771q0 -137 37 -188.5 t127 -51.5q-72 -49 -135 -49q-74 0 -120 63.5t-46 153.5q0 63 19 187q-174 -379 -443 -379q-127 0 -196.5 77.5t-69.5 200.5q0 127 128 552t128 585q0 180 -115 180q-100 0 -158.5 -116.5t-58.5 -237.5q0 -61 17 -100q-142 0 -142 141z" />
<glyph unicode="V" horiz-adv-x="1294" d="M51 1110q0 131 115 248t260 117q125 0 188.5 -97.5t63.5 -267.5t-66.5 -406.5t-132 -441.5t-65.5 -297q0 -80 57 -80q113 0 286 211t304 508t131 510q0 178 -113 213q55 94 119 94q49 0 87 -59t38 -168q0 -219 -150.5 -547t-365.5 -576.5t-377 -248.5q-63 0 -119.5 37 t-56.5 127q0 78 64.5 280.5t129 445t64.5 418.5q0 57 -1 89t-7 76t-18.5 66.5t-37 39t-59.5 16.5q-102 0 -156.5 -110.5t-54.5 -233.5q0 -68 19 -110q-76 0 -111 40.5t-35 106.5z" />
<glyph unicode="W" horiz-adv-x="1855" d="M51 1110q0 131 115 248t260 117q125 0 188.5 -97.5t63.5 -267.5t-66.5 -406.5t-132 -440.5t-65.5 -298q0 -80 61 -80q96 0 236.5 174t244 393.5t121.5 356.5q61 0 92 -32t31 -68q0 -35 -37 -123l-78 -185q-43 -96 -77.5 -218t-34.5 -212q0 -43 11 -64.5t46 -21.5 q113 0 286 211t304 508t131 510q0 178 -113 213q55 94 119 94q49 0 87 -59t38 -168q0 -219 -150.5 -547t-365.5 -576.5t-377 -248.5q-68 0 -122 40t-54 113q0 55 41 185q-240 -338 -424 -338q-63 0 -119.5 37t-56.5 127q0 78 64.5 280.5t129 445t64.5 418.5q0 57 -1 89 t-7 76t-18.5 66.5t-37 39t-59.5 16.5q-102 0 -156.5 -110.5t-54.5 -233.5q0 -68 19 -110q-76 0 -111 40.5t-35 106.5z" />
<glyph unicode="X" horiz-adv-x="1355" d="M51 -229q6 61 26.5 96t74.5 90q231 250 464 547q-16 254 -20 454q-4 272 -22.5 365.5t-98.5 93.5q-94 0 -153.5 -115.5t-59.5 -238.5q0 -61 17 -100q-141 0 -142 141q0 131 119 251t266 120q164 0 213 -195q29 -115 31 -465q2 -70 2 -110q324 449 455 774 q16 -12 31.5 -42t15.5 -57q0 -150 -500 -788q20 -694 193 -694q104 0 348 434l24 -21q-127 -260 -220 -374.5t-208 -114.5q-80 0 -136 52t-86 149.5t-42 182.5t-20 200q-178 -219 -340 -399.5t-232 -235.5z" />
<glyph unicode="Y" horiz-adv-x="1363" d="M47 1104q0 133 119 252t272 119q109 0 161 -61.5t52 -145.5q0 -68 -68.5 -315.5t-68.5 -364.5q0 -197 143 -197q129 0 240 147.5t195 362.5q139 573 245 574q53 0 115 -66q-102 -164 -155.5 -325.5t-182.5 -686.5l-41 -155q-14 -57 -45 -150.5t-59.5 -150t-74.5 -126 t-97.5 -107.5t-122 -64.5t-152.5 -26.5q-123 0 -202.5 51t-79.5 144q0 111 122 151q-16 -55 -16 -110q0 -86 45 -135.5t133 -49.5q299 0 428 580l37 184l49 236q-186 -358 -444 -359q-223 0 -223 244q0 111 69.5 362.5t69.5 341.5q0 160 -117 160q-102 0 -161.5 -116.5 t-59.5 -237.5q0 -61 16 -100q-141 0 -141 141z" />
<glyph unicode="Z" horiz-adv-x="1292" d="M-51 53q0 106 157 107q98 0 279 -54q180 190 399 551q-123 -2 -266 -22l-69 -10q8 143 305 143q31 0 92 -4q168 299 239 485q-47 12 -159.5 56.5t-221 78t-188.5 33.5q-231 0 -231 -295q0 -45 8 -71q-111 20 -111 147q0 135 104.5 206t291.5 71q152 0 381 -66t327 -66 q45 0 66 5q-55 -47 -103 -72q-98 -236 -266 -524q184 -18 217 -19q-33 -47 -78 -57t-192 -14q-229 -375 -447 -584q365 -115 502 -115q82 0 145 33q-61 -174 -215 -174q-35 0 -78.5 9t-75.5 18.5t-93.5 34t-85.5 34.5l-95 45q-72 35 -88 41q-147 -115 -262 -115 q-84 0 -136 51.5t-52 112.5zM2 57q0 -39 36 -75.5t89 -36.5q76 0 188 96q-158 66 -235 65h-2q-76 0 -76 -49z" />
<glyph unicode="[" horiz-adv-x="804" d="M59 -137q10 18 23.5 71.5t58.5 298.5l148 787q43 233 115.5 326.5t150.5 93.5q14 0 65.5 -3t81.5 -3q133 0 205 41q-6 -102 -60 -133t-155 -31q-33 0 -68.5 5t-80.5 15l-70 15q-68 -197 -172 -767.5t-125 -644.5q231 2 314 8.5t178 34.5q-14 -156 -267 -155 q-172 0 -342 41z" />
<glyph unicode="\" horiz-adv-x="1146" d="M336 1475q45 0 79 -29t46 -64q59 -154 145 -577l162 -766q76 -342 123 -371q-88 16 -148.5 102.5t-111.5 274.5q-39 143 -155.5 758t-139.5 672z" />
<glyph unicode="]" horiz-adv-x="839" d="M-29 -180q10 143 215 143q25 0 254 -16q68 195 183.5 788.5t128.5 644.5h-129q-256 0 -408 -43q0 82 64.5 110t199.5 28q147 0 342 -43q-6 -31 -45 -275l-82 -504q-43 -258 -67 -383q-12 -61 -19.5 -94t-30 -103.5t-48 -110.5t-68.5 -73.5t-96 -33.5q-288 0 -394 -35z " />
<glyph unicode="^" horiz-adv-x="415" d="M0 942q0 55 92 117.5t141.5 62.5t117 -80.5t67.5 -146.5q0 -47 -35 -64q-43 88 -152 189q-137 -49 -211 -117q-20 12 -20 39z" />
<glyph unicode="_" horiz-adv-x="1730" d="M-41 -135q10 96 195.5 132t525.5 36q221 0 442 -18.5t344 -18.5q-133 -92 -333 -92q-131 0 -304.5 -1t-232.5 -1t-159.5 -1t-134.5 -3t-101.5 -7.5t-114.5 -10.5t-127 -15z" />
<glyph unicode="`" horiz-adv-x="256" d="M0 1077q6 63 45 64q55 0 134 -102.5t79 -145.5q0 -39 -29 -53q-77 106 -229 237z" />
<glyph unicode="a" horiz-adv-x="892" d="M-53 74q0 121 85 268t220 253.5t262 106.5q80 0 133 -43t53 -110q0 -88 -100 -88q10 37 10 71q0 115 -100 115q-90 0 -191.5 -103.5t-166 -239.5t-64.5 -236q0 -80 55 -80q37 0 86.5 34.5t90 77.5t97 116t83.5 112l73 106q82 -14 82 -51q0 -16 -59 -122.5t-59 -162.5 q0 -35 17 -62.5t52 -27.5q59 0 149.5 85t178.5 239l20 -21q-63 -164 -179 -268t-226 -104q-72 0 -110 42t-38 101q0 25 7 59q-92 -123 -165 -180t-145 -57q-68 0 -109.5 44t-41.5 126z" />
<glyph unicode="b" horiz-adv-x="806" d="M-20 109q0 195 123.5 524.5t277.5 579t235 249.5q31 0 48.5 -40t17.5 -89q0 -96 -64.5 -250.5t-176 -307t-226.5 -222.5q-27 -49 -62.5 -184.5t-35.5 -247.5q0 -193 112 -193q59 0 123 48.5t103 123.5q-72 37 -111 110t-39 155q0 96 50.5 156.5t121.5 60.5q59 0 94 -49.5 t35 -139.5q0 -135 -71 -278q25 -6 53 -6q51 0 94 19t74.5 58t51 69t42.5 77l24 -27q-96 -233 -292 -233q-35 0 -66 6q-135 -227 -326 -228q-104 0 -157 69t-53 190zM238 633q131 104 252.5 330.5t121.5 316.5q0 16 -8 16q-23 0 -91.5 -98t-150 -259t-124.5 -306zM377 354 q0 -147 98 -213q47 100 47 207q0 70 -19.5 112t-47.5 42q-31 0 -54.5 -43.5t-23.5 -104.5z" />
<glyph unicode="c" horiz-adv-x="661" d="M-10 147q0 203 144.5 374t303.5 171q78 0 112 -44t34 -107q0 -61 -28 -105.5t-75 -44.5q-35 0 -59 31q31 14 53.5 64.5t22.5 97.5q0 51 -45 51q-106 0 -221 -174t-115 -328q0 -170 149 -170q125 0 247 102.5t187 268.5l27 -21q-70 -186 -214 -307t-294 -121 q-102 0 -165.5 67.5t-63.5 194.5z" />
<glyph unicode="d" horiz-adv-x="968" d="M-33 111q0 113 83 260t215 256.5t253 109.5q90 0 90 -63q0 -8 -4 -29q-23 31 -78 31q-102 0 -202.5 -103.5t-156.5 -228.5t-56 -209q0 -45 19.5 -71.5t53.5 -26.5q88 0 218 158.5t225 404.5l80 207l77 192q49 121 84 189l72 143q41 76 75 110t60 34q16 0 28.5 -13.5 t12.5 -34.5q0 -41 -74 -200l-161 -336q-88 -178 -162 -394t-74 -354q0 -47 2 -66.5t12.5 -33.5t32.5 -14q68 0 161 85t155 218l24 -19q-59 -156 -175 -261t-222 -105q-70 0 -102.5 45t-32.5 108q0 70 39 219q-104 -172 -216 -276t-202 -104q-59 0 -106.5 44t-47.5 128z" />
<glyph unicode="e" horiz-adv-x="681" d="M-29 147q0 188 172 389t349 201q127 0 126 -125q0 -150 -159.5 -264.5t-347.5 -132.5q-8 -35 -9 -74q0 -172 162 -172q125 0 252 104.5t207 258.5l25 -19q-82 -182 -227.5 -292.5t-299.5 -110.5q-121 0 -185.5 66.5t-64.5 170.5zM121 254q143 51 275 153.5t132 219.5 q0 47 -43 47q-96 0 -208.5 -134t-155.5 -286z" />
<glyph unicode="f" horiz-adv-x="638" d="M-139 -393q0 158 90 469t219 622.5t287.5 544t279.5 232.5q70 0 70 -91q0 -166 -169 -393t-378 -373q-14 -33 -39 -102q43 -10 51 -65q10 -70 16.5 -107t21 -85t30.5 -70.5t45 -40t66 -17.5q68 0 115.5 47t111.5 154l31 -21q-49 -115 -125 -174t-144 -59q-78 0 -151 67 q-2 -260 -101.5 -489t-214.5 -229q-43 0 -77.5 40t-34.5 140zM-12 -377q0 -98 39 -98q57 0 133 218t76 380q0 102 -70 239q-178 -524 -178 -739zM293 702q184 170 309 353.5t125 253.5q0 29 -29 28q-76 0 -184 -177t-221 -458z" />
<glyph unicode="g" horiz-adv-x="796" d="M-41 -455q0 41 15.5 78t52 72t64.5 59.5t89 57.5l86 47q25 14 92 47q57 147 105 338q-182 -262 -334 -262q-72 0 -113 54t-41 144q0 135 90.5 261t215.5 198t237 72q111 0 111 -66q0 -33 -25 -41q-23 31 -82 31q-152 0 -281.5 -162t-129.5 -303q0 -100 71 -100 q55 0 138 75.5t165 194.5l25 109q23 104 104 104q18 0 43 -6q0 -55 -45 -222t-112 -339q106 51 197 142t137 204l26 -21q-43 -125 -154.5 -227t-228.5 -158q-207 -500 -399 -499q-49 0 -84 29.5t-35 88.5zM23 -436q0 -33 13 -52.5t36 -19.5q47 0 117.5 89t146.5 269 q-150 -76 -231.5 -141t-81.5 -145z" />
<glyph unicode="h" horiz-adv-x="974" d="M12 135q0 188 115 510t263.5 569.5t234.5 247.5q33 0 50 -40t17 -89q0 -96 -65.5 -251.5t-178 -307t-227.5 -221.5q-76 -178 -76 -403q0 -33 5 -70q182 530 415 530q78 0 117 -54t39 -130q0 -68 -44 -182.5t-44 -161.5q0 -78 61 -78q70 0 164 97.5t156 230.5l26 -25 q-68 -156 -173 -256t-220 -100q-68 0 -104.5 36t-36.5 93q0 41 31.5 149.5t31.5 159.5q0 98 -77 98q-68 0 -130.5 -88t-100.5 -194.5t-82 -194.5t-83 -88q-37 0 -60.5 63.5t-23.5 149.5zM248 633q131 104 253 330.5t122 316.5q0 16 -9 16q-23 0 -89 -93t-148 -254.5 t-129 -315.5z" />
<glyph unicode="i" horiz-adv-x="493" d="M-10 119q0 80 43 215t114.5 247.5t137.5 112.5q45 0 45 -45q0 -25 -53.5 -112.5t-106.5 -199.5t-53 -196q0 -72 23.5 -97.5t76.5 -25.5q160 0 315 314l19 -21q-57 -172 -169 -268t-235 -96q-76 0 -116.5 48t-40.5 124zM309 952q0 41 49.5 74t100.5 33q68 0 67 -62 q0 -41 -42 -76.5t-91 -35.5q-84 -1 -84 67z" />
<glyph unicode="j" horiz-adv-x="446" d="M-393 -469q0 76 72.5 166t185.5 153l131 66q88 219 137 504l-57 -98l-39 -64l-19 31q33 61 77 177t78 180.5t71 64.5q49 0 49 -62q0 -55 -48 -260t-116 -405q8 4 49 27.5t55 31.5l48 33q35 23 53 45l49 51q29 31 53.5 67.5t48.5 82.5l27 -15q-29 -70 -65.5 -124t-88 -96 t-80 -62.5t-93 -56.5t-76.5 -42q-182 -500 -396 -499q-51 0 -78.5 28.5t-27.5 75.5zM-340 -455q0 -49 35 -49q45 0 123 94.5t151 259.5q-150 -74 -229.5 -155.5t-79.5 -149.5zM195 961q0 43 48 75.5t101 32.5q68 0 68 -57q0 -45 -42 -81t-94 -36q-35 0 -58 17.5t-23 48.5z " />
<glyph unicode="k" horiz-adv-x="913" d="M8 129q0 201 125 526.5t274.5 566t221.5 240.5q27 0 45 -39t18 -94q0 -147 -120.5 -335.5t-297.5 -295.5q-135 -332 -135 -585q227 573 459 573q76 0 129 -53t53 -129q0 -80 -58 -138.5t-120.5 -80t-112.5 -21.5q6 -39 19.5 -91t52.5 -112.5t88 -60.5q154 0 303 334 l21 -21q-45 -156 -152.5 -273.5t-212.5 -117.5q-72 0 -122 68.5t-68.5 147.5t-18.5 153q39 0 96.5 18.5t112 66.5t54.5 111q0 41 -31 67t-72 26q-84 0 -163 -91.5t-123 -193.5t-82.5 -211t-40.5 -111q-23 -37 -68 -36h-2q-25 0 -40 15t-21.5 47t-8.5 58.5t-2 71.5zM309 780 q133 106 223.5 259t90.5 239q0 18 -7 18q-31 0 -125 -156.5t-182 -359.5z" />
<glyph unicode="l" horiz-adv-x="483" d="M6 150q0 139 80 371.5t185.5 440t213 360.5t158.5 153q29 0 48.5 -51.5t19.5 -100.5q0 -154 -168 -468t-377 -486q-27 -119 -27 -207q0 -158 90 -158q76 0 155 96.5t140 231.5l31 -17q-176 -377 -383 -376h-2q-164 0 -164 211zM184 438q168 170 315.5 447.5t147.5 390.5 q0 33 -14 33q-29 0 -114 -132.5t-183.5 -343.5t-151.5 -395z" />
<glyph unicode="m" horiz-adv-x="1323" d="M-72 -12q0 8 35 108.5t71 229.5t36 209q39 43 94 43t55 -54q0 -55 -53 -233q100 160 216 274.5t216 114.5q111 0 111 -156q0 -133 -64 -288q174 315 340 315q117 0 117 -131q0 -57 -38 -179t-38 -163q0 -70 61 -70q127 0 275 324l24 -29q-57 -152 -149 -259t-205 -107 q-68 0 -102.5 41.5t-34.5 107.5q0 53 30.5 153.5t30.5 137.5q0 74 -59 74q-47 0 -101.5 -67t-166.5 -239q-25 -37 -99 -190q-33 0 -68.5 11t-35.5 30q0 4 64.5 194.5t64.5 276.5q0 78 -51 78q-88 0 -238.5 -195.5t-226.5 -404.5q-31 0 -71 14.5t-40 28.5z" />
<glyph unicode="n" horiz-adv-x="954" d="M-78 14q0 6 36 96.5t73 210t37 197.5q39 43 94 43t55 -53q0 -70 -65 -270q236 360 426 360q74 0 112.5 -54.5t38.5 -129.5q0 -68 -42 -172.5t-42 -151.5q0 -78 62 -78q127 0 286 320l23 -27q-147 -346 -354 -346q-70 0 -107 36t-37 95q0 41 30 138.5t30 146.5 q0 100 -82 100q-49 0 -105.5 -39t-99.5 -84t-101.5 -131t-83.5 -127l-75 -125q-76 0 -109 45z" />
<glyph unicode="o" horiz-adv-x="747" d="M-20 121q0 131 74.5 261t160.5 130q18 0 43 -10q-39 -33 -92 -163t-53 -204q0 -117 73 -117q90 0 220 164q-57 47 -89 123t-32 158q0 106 54 182t146 76q141 0 142 -158q0 -160 -138 -364q37 -20 78 -21q59 0 123 36t96 112l25 -21q-39 -90 -110.5 -133t-147.5 -43 q-55 0 -98 21q-164 -215 -314 -216q-84 0 -122.5 51.5t-38.5 135.5zM373 457q0 -139 69 -221q119 176 119 315q0 115 -61 115q-45 0 -86 -62.5t-41 -146.5z" />
<glyph unicode="p" horiz-adv-x="800" d="M-193 -498q0 16 9.5 47t35 97.5t39.5 109.5q68 197 109 398.5t86 574.5q2 20 9 27.5t30 7.5q49 0 73.5 -27.5t24.5 -66.5q0 -57 -47 -277q63 123 154.5 212t199.5 89q90 0 148.5 -64.5t58.5 -168.5q0 -176 -142 -345t-341 -169q-51 0 -85 11t-34 26q0 10 51 10 q160 0 289 143.5t129 304.5q0 70 -29.5 114t-87.5 44q-96 0 -193 -108.5t-147 -221.5q-180 -764 -251 -833q-10 -10 -25 -10q-23 0 -45 34q-21 31 -19 41z" />
<glyph unicode="q" horiz-adv-x="821" d="M-31 115q0 119 85 263t221.5 248.5t267.5 104.5q70 0 116 -28.5t46 -71.5q0 -29 -18.5 -52.5t-49.5 -23.5q0 49 -28.5 81t-88.5 32q-104 0 -202.5 -102.5t-151.5 -224.5t-53 -206q0 -45 19.5 -71.5t51.5 -26.5q51 0 124 74.5t124 149.5t135 210q39 63 90 64q41 0 41 -37 q0 -25 -74.5 -161t-105.5 -278q209 18 342 271l25 -23q-63 -143 -162.5 -215t-208.5 -82q35 -111 35 -231q0 -145 -44 -248.5t-108 -103.5q-72 0 -71 145q0 115 33.5 297t86.5 332q-182 -262 -323 -262q-59 0 -106.5 44t-47.5 132zM436 -403q0 -57 17 -58q23 0 37 81t14 177 q0 84 -15 154q-53 -223 -53 -354z" />
<glyph unicode="r" horiz-adv-x="712" d="M2 260q98 190 166 389q-20 20 -21 49q0 55 32 97.5t54 42.5q29 0 29 -50q0 -8 -11 -39.5t-11 -35.5q0 -25 32.5 -52.5t71.5 -52t72 -73t33 -107.5q0 -68 -51.5 -187.5t-51.5 -158.5q0 -61 62 -62q90 0 197.5 102.5t150.5 203.5l26 -21q-63 -141 -184 -249.5t-244 -108.5 q-70 0 -109.5 36.5t-39.5 96.5q0 61 56 195.5t56 187.5q0 20 -6 39.5t-11 31t-21 25.5l-23 21q-6 6 -27.5 20t-25.5 18q-96 -246 -183 -393z" />
<glyph unicode="s" horiz-adv-x="706" d="M-41 164q0 55 17.5 93t39 51.5t45 23.5t29.5 16q131 143 203 297v25q0 70 23.5 104.5t56.5 34.5t33 -27q0 -4 -6.5 -32.5t-6.5 -57.5q0 -61 53.5 -227t53.5 -266q0 -55 -13 -101q152 27 258 232l19 -21q-72 -211 -287 -243q-63 -170 -262 -170q-133 0 -194.5 79.5 t-61.5 188.5zM51 166q0 -78 46 -138.5t122 -60.5q94 0 129 101q-82 16 -149.5 64t-102.5 106q-45 -2 -45 -72zM104 301q76 -162 254 -201q8 53 9 97q0 57 -10.5 120.5t-29 140.5t-24.5 109q-105 -172 -199 -266z" />
<glyph unicode="t" horiz-adv-x="583" d="M-8 109q0 176 119 493q-49 8 -74 16v37q74 -8 90 -8q90 233 193.5 404.5t162.5 171.5q16 0 29.5 -12.5t13.5 -32.5q0 -31 -40 -107t-112.5 -203t-119.5 -227h76q170 0 293 12v-37q-217 -25 -351 -24h-10h-31q-113 -256 -112 -445q0 -92 26.5 -128.5t87.5 -36.5 q104 0 207 93t183 257l26 -21q-76 -178 -205 -291.5t-270 -113.5q-182 0 -182 203z" />
<glyph unicode="u" horiz-adv-x="897" d="M0 145q0 117 67.5 291t112.5 174q39 0 76 -41q-43 -68 -90 -193.5t-47 -217.5q0 -137 74 -138q27 0 56.5 20.5t60 60.5t58 80t58.5 100l53 100l49 98q27 59 37 76q98 -18 99 -53q0 -6 -35 -83t-69 -177.5t-34 -159.5q0 -82 68 -82q70 0 170 91t172 241l27 -19 q-66 -164 -183.5 -269t-228.5 -105q-143 0 -143 151q0 41 14 103q-143 -254 -268 -254q-68 0 -111 60t-43 146z" />
<glyph unicode="v" horiz-adv-x="833" d="M20 145q0 39 13 269q2 43 6 59t17.5 26.5t41.5 10.5q35 0 44.5 -13.5t9.5 -52.5q0 -43 -9.5 -158.5t-9.5 -170.5q0 -115 47 -115q68 0 164 138t174 311q8 231 94 231q35 0 54.5 -25.5t19.5 -52.5q0 -18 -17.5 -50t-36 -88t-18.5 -136q0 -156 97 -156q88 0 161 152l27 -21 q-74 -172 -203 -172q-145 0 -172 199q-84 -168 -191.5 -289t-199.5 -121q-113 0 -113 225z" />
<glyph unicode="w" horiz-adv-x="1263" d="M0 145q0 117 67.5 291t112.5 174q16 0 46 -12t30 -29q-43 -66 -90 -193.5t-47 -217.5q0 -137 71 -138q109 0 308 392q25 123 38 153.5t44 30.5q59 0 59 -45q0 -6 -4 -23q-57 -186 -57 -428q0 -100 45 -100q57 0 149 128t168 292q0 260 102 260q35 0 54.5 -25.5 t19.5 -52.5q0 -18 -17.5 -50t-36 -88t-18.5 -136q0 -156 97 -156q90 0 162 152l26 -21q-74 -172 -203 -172q-131 0 -172 172q-86 -160 -187 -271.5t-189 -111.5q-111 0 -111 199q0 74 14 184q-182 -365 -325 -364h-2q-66 0 -110 60t-44 146z" />
<glyph unicode="x" horiz-adv-x="856" d="M20 297l41 88q27 59 46.5 95t49 77t68.5 60.5t90 19.5q133 0 170 -195q227 238 279 238q12 0 31.5 -6t19.5 -17q-63 0 -317 -295q2 -27 6 -70.5t6 -70t6 -62.5t11.5 -57.5t17.5 -42t26.5 -30t36.5 -9.5q70 0 155 100.5t134 209.5l21 -21q-47 -139 -153 -250.5 t-208 -111.5q-82 0 -120 74.5t-54 205.5l-268 -333q-12 -14 -25 -15q-20 0 -20 31q0 72 303 409q-6 63 -11.5 93t-15.5 71t-25.5 57.5t-37.5 16.5q-29 0 -53.5 -12.5t-52 -50t-42 -59t-49.5 -85.5l-47 -86z" />
<glyph unicode="y" horiz-adv-x="796" d="M-41 -465q0 51 24.5 97t52 77t94.5 73t103 60l123 64q61 158 115 375q-160 -260 -299 -261q-66 0 -115 43t-49 123q0 113 67.5 280t112.5 167q18 0 54.5 -15.5t36.5 -31.5q-41 -59 -88.5 -191.5t-47.5 -210.5q0 -82 74 -82q55 0 130 76t142 187q10 35 21 94 q23 104 104 104q18 0 43 -6q0 -55 -46 -227t-113 -346q231 90 338 348l26 -21q-76 -240 -387 -383q-205 -502 -387 -501q-55 0 -92 28.5t-37 79.5zM23 -446q0 -20 14 -41t41 -21q23 0 59.5 33t92 120t106.5 212q-82 -43 -124 -69t-93 -64.5t-73.5 -79.5t-22.5 -90z" />
<glyph unicode="z" horiz-adv-x="649" d="M-145 -469q0 51 26.5 97t84 92.5t110.5 80.5l139 86q88 53 141 88q0 150 -141 261q100 29 161.5 121t61.5 180q0 49 -20.5 78.5t-59.5 29.5t-76.5 -21.5t-64.5 -49t-60.5 -85t-53 -96.5t-56.5 -119l-24 21q80 215 158.5 321.5t205.5 106.5q72 0 121 -46t49 -122 q0 -104 -69.5 -190t-172.5 -138q106 -82 144 -184q176 133 227 289l23 -25q-51 -162 -238 -303q8 -27 8 -67q0 -188 -151.5 -349t-337.5 -161q-135 0 -135 104zM-88 -446q0 -68 63 -68q96 0 228.5 126t150.5 316l-127 -78l-125 -77q-43 -27 -94 -67t-73.5 -76.5t-22.5 -75.5 z" />
<glyph unicode="{" horiz-adv-x="532" d="M76 -43q0 68 75.5 252t75.5 268q0 141 -73 201q82 8 121.5 93t48.5 200l18 231q8 115 51 194t129 79q102 0 113 -109q-53 29 -68 29q-49 0 -76.5 -73t-39.5 -179l-25 -211q-12 -106 -47 -183t-90 -83q53 -55 53 -142q0 -109 -39 -220t-78 -205.5t-39 -160t68 -65.5 q31 0 51 16q-6 -68 -96 -67q-133 0 -133 135z" />
<glyph unicode="|" horiz-adv-x="530" d="M113 -270q66 178 129 903t84 794q57 -25 57 -116q0 -176 -23.5 -595t-44.5 -610q-38 -376 -202 -376z" />
<glyph unicode="}" horiz-adv-x="524" d="M-43 -70q37 -25 70 -24q55 0 82.5 93t50.5 265q14 117 26.5 188.5t47 151.5t85.5 107q-51 57 -51 147q0 96 73 282.5t73 235.5q0 31 -15 31q-39 0 -84 -35q8 43 53.5 73t86.5 30q37 0 59.5 -20.5t22.5 -49.5q0 -35 -76 -223.5t-76 -292.5q0 -145 72 -195 q-86 -20 -129 -118.5t-52.5 -222.5t-20.5 -245.5t-53 -203.5t-128 -82q-107 -1 -117 108z" />
<glyph unicode="~" horiz-adv-x="890" d="M82 328q72 94 170 94q53 0 185 -45t212 -45q31 0 62 6q-66 -74 -160 -74q-57 0 -183 40t-192 40q-53 0 -94 -16z" />
<glyph unicode="&#xa1;" horiz-adv-x="540" d="M-162 -465q0 82 240.5 560t361.5 657q0 -96 -112 -390l-80 -206l-78 -193q-49 -121 -84 -190l-74 -142q-41 -74 -73.5 -108.5t-59.5 -34.5q-16 0 -28.5 13.5t-12.5 33.5zM393 893q0 31 34 60.5t73 29.5q66 0 65 -55q0 -33 -39 -58.5t-80 -25.5q-53 0 -53 49z" />
<glyph unicode="&#xa2;" horiz-adv-x="825" d="M106 496q0 174 128 332.5t282 199.5q45 211 66 354q10 76 92 93l-82 -435q80 0 114.5 -44t34.5 -107q0 -61 -27.5 -105.5t-74.5 -44.5q-35 0 -59 31q31 14 53 64.5t22 97.5q0 51 -45 51q-20 0 -30 -2q-80 -430 -129 -664q139 25 247 121l35 -32q-125 -119 -297 -160 l-47 -201q-18 -76 -46 -155.5t-54.5 -122.5t-64.5 -71t-85 -28q70 78 195 565q-102 0 -165 68t-63 195zM233 481q0 -154 121 -170q68 264 148 641q-109 -59 -189 -202.5t-80 -268.5z" />
<glyph unicode="&#xa3;" horiz-adv-x="1331" d="M-43 70q0 90 149 90q90 0 252 -43q55 94 103 231q-160 -18 -168 -20l-70 -11q8 135 277 144l30 94q-33 -6 -98 -12t-98 -11l-70 -10q8 143 301 144l49 153q-94 31 -148 90.5t-54 128.5q0 59 35.5 110.5t91.5 51.5q-27 -37 -27 -127q0 -147 117 -211q45 137 86 235.5 t95 190.5t119.5 139.5t139.5 47.5q76 0 137.5 -49.5t61.5 -159.5q0 -74 -31 -154t-88 -152.5t-154.5 -118.5t-218.5 -46h-33q-25 -66 -45 -136q49 -4 159 -16t159 -12q-33 -45 -89.5 -55.5t-262.5 -14.5q-25 -70 -39 -104q61 -4 180 -16.5t170 -14.5q-33 -47 -93.5 -57.5 t-297.5 -14.5q-78 -178 -135 -264q18 -6 92 -29l100 -30q27 -8 89.5 -24.5t97 -24t80.5 -13.5t83 -6q82 0 146 33q-61 -174 -215 -174q-53 0 -128 21.5t-119 40t-152.5 68.5t-133.5 60q-109 -121 -227 -121q-92 0 -148.5 60t-56.5 119zM10 67.5q0 -38.5 42 -77.5t102 -39 q86 0 157 94q-152 61 -233 61q-68 0 -68 -38.5zM756 834q168 2 284.5 172t116.5 315q0 102 -74 102q-45 0 -88 -43t-86 -138t-73 -179z" />
<glyph unicode="&#xa4;" horiz-adv-x="1427" d="M170 88q20 20 74.5 59t114 93.5t110.5 128.5q-18 55 -18 137q0 186 94 362q-150 162 -242 246q-37 33 -37 123q0 39 13 70q57 -55 321 -346q119 158 266.5 157.5t210.5 -139.5q29 33 70 92t63.5 86t68.5 50.5t105 23.5q12 0 37 -4q-25 -35 -315 -373q0 -6 1 -16.5 t1 -16.5q0 -193 -111 -387q233 -219 234 -348q0 -25 -4 -37q-16 31 -58 72l-110 108l-119 117q-119 -150 -254 -149q-111 0 -170 82q-170 -191 -346 -191zM567 485q0 -76 43 -128t92 -52q68 0 138.5 89t114.5 216t44 234q0 72 -40.5 122t-92.5 50q-78 0 -150.5 -96.5 t-110.5 -218.5t-38 -216z" />
<glyph unicode="&#xa5;" horiz-adv-x="1658" d="M225 1104q0 133 119 252t272 119q109 0 161 -61.5t52 -145.5q0 -68 -68.5 -315.5t-68.5 -364.5q0 -197 144 -197q129 0 239.5 147.5t194.5 362.5q139 573 246 574q53 0 114 -66q-102 -164 -155.5 -325.5t-182.5 -686.5l-43 -166q119 -6 209 -14q-82 -59 -211 -59h-18 q-20 -66 -45 -129q98 -2 274 -17q-82 -59 -211 -59h-96q-156 -336 -451 -336q-123 0 -202.5 51t-79.5 142q0 113 123 153q-16 -55 -17 -110q0 -86 45 -135.5t133 -49.5q205 0 334 285q-174 0 -309 -23q35 92 340 101q14 35 41 127h-10q-225 0 -371 -23q37 100 387 101h12 l4 12l37 184q29 143 50 236q-186 -358 -445 -359q-223 0 -223 244q0 111 69.5 362.5t69.5 341.5q0 160 -117 160q-102 0 -161.5 -116.5t-59.5 -237.5q0 -61 17 -100q-142 0 -142 141z" />
<glyph unicode="&#xa6;" horiz-adv-x="532" d="M113 -270q55 147 108 673q41 41 94 41q25 0 25 -47q-25 -362 -67.5 -514.5t-159.5 -152.5zM240 606q6 78 18 211l18 211q6 76 15.5 167t17.5 147.5t17 84.5q57 -25 57 -116q0 -39 -10.5 -223.5t-10.5 -305.5q0 -29 -15 -69.5t-50 -65.5z" />
<glyph unicode="&#xa7;" horiz-adv-x="851" d="M14 57q0 92 50.5 133t115.5 41q-72 -76 -71 -174q0 -78 51 -131t149 -53q96 0 170 51t74 139q0 61 -42 113.5t-101 91.5l-119 82q-59 43 -101.5 105.5t-42.5 138.5q0 117 87.5 202t240.5 85q33 0 49 -2q-53 31 -79.5 48t-63.5 49t-53.5 67.5t-16.5 80.5q0 119 106.5 234 t258.5 115q145 0 145 -129.5t-100 -288.5q-43 8 -43 55q0 37 38 137.5t38 138.5q0 55 -72 56q-117 0 -203 -98.5t-86 -192.5q0 -53 38 -94t92.5 -73t107.5 -69.5t91 -103.5t38 -156q0 -131 -75 -197.5t-206 -66.5q-33 0 -48 3t-40.5 15.5t-50.5 20.5q14 -16 99 -63.5 t144.5 -112t59.5 -152.5q0 -123 -112.5 -201.5t-243.5 -78.5q-115 0 -194 61t-79 174zM262 635q0 -162 187 -162q195 0 194 174q0 80 -45 127t-133 47q-86 0 -144.5 -46t-58.5 -140z" />
<glyph unicode="&#xa8;" horiz-adv-x="489" d="M0 954q0 37 44 67t91 30q61 0 62 -58q0 -35 -38 -67.5t-83 -32.5q-76 0 -76 61zM295 911q0 37 44 67t91 30q61 0 62 -58q0 -35 -38 -67.5t-83 -32.5q-76 0 -76 61z" />
<glyph unicode="&#xa9;" d="M162 733q0 254 157.5 395.5t350 141.5t346 -140.5t153.5 -388.5q0 -254 -157.5 -395t-350 -141t-346 140t-153.5 388zM219 733q0 -207 123 -339t319.5 -132t323.5 133t127 346q0 207 -123 339t-319.5 132t-323.5 -133t-127 -346zM502 612v271q0 96 46 141t120 45 q84 0 126 -49t42 -96q0 -35 -31 -35q-27 0 -31 24q-16 100 -104 101q-106 0 -107 -131v-271q0 -131 111 -131q51 0 75.5 36t24.5 65q0 25 27 24q35 0 35 -28q-4 -66 -48.5 -108t-119.5 -42q-166 0 -166 184z" />
<glyph unicode="&#xaa;" horiz-adv-x="784" d="M215 1036q0 133 131 286t266 153q55 0 92 -30t37 -77q0 -61 -69 -61q8 33 8 49q0 82 -72 82q-96 0 -195.5 -147.5t-99.5 -260.5q0 -55 39 -55q92 0 301 313q57 -14 58 -37q0 -12 -42 -85.5t-42 -112.5q0 -25 12 -44.5t37 -19.5q41 0 104.5 59.5t124.5 168.5l15 -15 q-43 -115 -125 -188.5t-158 -73.5q-51 0 -78 29.5t-27 70.5q0 10 5 43q-125 -168 -215 -168q-47 0 -77 31t-30 90z" />
<glyph unicode="&#xab;" horiz-adv-x="890" d="M12 324q100 43 212 137t177 186q10 -16 11 -45q0 -121 -346 -301l88 -61q31 -20 92 -51t151 -66q-29 -33 -59 -33q-74 0 -192 86.5t-134 147.5zM319 324q100 43 212 137t178 186q10 -16 10 -45q0 -121 -346 -301q57 -41 88 -61.5t92 -51t152 -65.5q-29 -33 -60 -33 q-74 0 -192 86.5t-134 147.5z" />
<glyph unicode="&#xac;" horiz-adv-x="1366" d="M90 377q59 100 619 100q176 0 317 -6q10 63 57 107q0 -6 5.5 -44t7.5 -67q35 0 164 -8q-61 -29 -160 -47q0 -12 1 -37t1 -37q0 -246 -101 -270q8 35 12.5 60.5t6.5 59t3 54t1 75.5v86q-37 -4 -102 -4q-121 -2 -275 -2h-215q-59 0 -149.5 -5t-192.5 -15z" />
<glyph unicode="&#xad;" horiz-adv-x="991" d="M72 295q37 100 387 100q166 0 344 -18q-49 -33 -132 -46.5t-286 -13.5q-176 1 -313 -22z" />
<glyph unicode="&#xae;" d="M162 733q0 254 157.5 395.5t350 141.5t346 -140.5t153.5 -388.5q0 -254 -157.5 -395t-350 -141t-346 140t-153.5 388zM219 733q0 -207 123 -339t319.5 -132t323.5 133t127 346q0 207 -123 339t-319.5 132t-323.5 -133t-127 -346zM514 459v581q0 10 9 18.5t22 8.5h129 q176 0 176 -172q0 -141 -123 -168l119 -254q4 -8 4 -14q0 -29 -29 -29q-8 0 -17 8t-14.5 16.5t-11.5 20.5l-8 14l-108 234h-84v-264q0 -29 -31 -29q-33 0 -33 29zM578 776h96q113 0 112 119q0 117 -112 117h-96v-236z" />
<glyph unicode="&#xb0;" horiz-adv-x="542" d="M188 922q0 78 76 153.5t174 75.5q156 0 156 -111q0 -78 -79 -153.5t-179 -75.5q-148 0 -148 111zM254 922q0 -76 92 -76q63 0 124.5 67.5t61.5 128.5q0 74 -94 74q-66 0 -125 -65.5t-59 -128.5z" />
<glyph unicode="&#xb1;" horiz-adv-x="919" d="M111 172q33 80 348 80q184 0 309 -14q-78 -47 -313 -48q-211 0 -344 -18zM111 592q29 74 292 80v82q0 104 54 168q14 -98 16 -250q145 -2 295 -15q-74 -49 -190 -49h-105q-6 -242 -90 -270q20 111 20 270q-177 0 -292 -16z" />
<glyph unicode="&#xb2;" horiz-adv-x="724" d="M147 715q0 53 84 53q33 0 105 -14q100 88 183 241.5t83 280.5q0 139 -100 139q-59 0 -95 -57.5t-36 -143.5q0 -33 14 -73h-16q-41 12 -59.5 32.5t-18.5 61.5q0 86 65.5 150.5t161.5 64.5q76 0 124 -54.5t48 -133.5q0 -129 -86 -276.5t-203 -244.5l17 -4q139 -33 186 -32 q33 0 90 36q-31 -119 -116 -118q-59 0 -199 59l-39 16q-66 -43 -115 -43q-35 0 -56.5 16.5t-21.5 43.5zM195 712.5q0 -20.5 28 -20.5q20 0 64 27q-37 14 -64 14q-28 0 -28 -20.5z" />
<glyph unicode="&#xb3;" horiz-adv-x="602" d="M166 793q0 43 24.5 77.5t67.5 34.5q16 0 29 -4q-35 -29 -35 -96q0 -49 26.5 -85t71.5 -36q59 0 108.5 63.5t49.5 157.5q0 156 -121 187q76 33 124 107.5t48 139.5q0 96 -84 97q-43 0 -75.5 -29t-32.5 -78q0 -29 16 -67q-16 -33 -49 -33q-20 0 -31.5 26.5t-11.5 57.5 q0 72 59.5 114.5t136.5 42.5q68 0 116 -35.5t48 -99.5q0 -68 -48 -138.5t-120 -94.5q74 -25 109 -81t35 -116q0 -100 -84 -181t-203 -81q-88 0 -131 46.5t-43 103.5z" />
<glyph unicode="&#xb4;" horiz-adv-x="256" d="M180 893q0 43 79 145.5t134 102.5q39 0 45 -64q-152 -131 -229 -237q-29 14 -29 53z" />
<glyph unicode="&#xb5;" horiz-adv-x="1196" d="M-82 -496q23 82 90.5 258.5t114.5 387t92 579.5q2 20 9 27.5t30 7.5q49 0 73.5 -27.5t24.5 -66.5q-98 -440 -98 -547q0 -102 59 -103q27 0 56.5 20.5t60.5 60.5t58.5 80t60.5 100l51 100l49 98q27 59 37 76q98 -18 98 -53q0 -6 -33.5 -83t-68.5 -177.5t-35 -159.5 q0 -82 68 -82q70 0 170 91t172 241l26 -19q-66 -164 -183.5 -269t-227.5 -105q-143 0 -144 151q0 41 15 103q-143 -254 -269 -254q-51 0 -86 34q-154 -547 -206 -546q-25 0 -44.5 32.5t-19.5 44.5z" />
<glyph unicode="&#xb6;" horiz-adv-x="1318" d="M125 688q0 143 103.5 257t243.5 171.5t290 69.5q-4 152 -19 264q33 16 59.5 16t43 -18t22.5 -54t8.5 -68t2.5 -78t2 -64l86 -13q-4 182 -13 279q25 16 54 16q57 0 73 -323q98 -33 170 -68q-6 -14 -38.5 -34.5t-45.5 -20.5q-2 0 -84 43q2 -35 2 -105q0 -295 -6 -537.5 t-13 -357t-13 -139.5q-16 -47 -55.5 -74.5t-84.5 -27.5q6 12 18.5 222t24 522.5t11.5 541.5v8q-35 10 -84 21q6 -154 6 -453q0 -211 -7.5 -390t-14.5 -265t-13 -105q-16 -43 -70.5 -72.5t-109.5 -29.5q6 76 21.5 246t21.5 251q-61 2 -126 11.5t-153 35t-153.5 63.5 t-112.5 105.5t-47 153.5z" />
<glyph unicode="&#xb7;" horiz-adv-x="428" d="M78 309q0 33 39 58.5t80 25.5q53 0 53 -49q0 -31 -34 -60.5t-73 -29.5q-65 0 -65 55z" />
<glyph unicode="&#xb8;" horiz-adv-x="444" d="M41 -281q0 35 45 68q20 -92 86 -92q57 0 113.5 61.5t56.5 116.5q0 51 -35 51q-31 0 -98.5 -42t-75.5 -42q-12 0 -20.5 12.5t-8.5 24.5q0 6 43 65.5t66 80.5l72 55l-109 -166q70 49 137 49q92 0 93 -86q0 -88 -73 -158.5t-167 -70.5q-57 0 -91 21t-34 52z" />
<glyph unicode="&#xb9;" horiz-adv-x="530" d="M135 692h25q4 0 10 -1t8 -1q45 0 103 10q37 84 83 330t56 281q-82 -53 -105 -54q-31 0 -30 37q29 14 96.5 67.5t118.5 106.5h12q10 -10 10 -32.5t-12 -67.5q-8 -35 -37 -174l-39 -195l-26 -127q-27 -125 -58 -161q10 2 27 2q94 0 106 -66q-53 4 -88 4q-37 0 -91 -4 t-81 -4q-55 0 -88 49z" />
<glyph unicode="&#xba;" horiz-adv-x="571" d="M219 1049q0 125 112.5 275.5t235.5 150.5q47 0 62 -29q29 0 44 -17.5t15 -37.5q0 -12 -28.5 -75t-28.5 -106q0 -33 41 -32q6 0 55 6q-23 -41 -84 -41q-39 0 -53 26q-47 -111 -114.5 -177t-141.5 -66q-53 0 -84 34t-31 89zM311 1059q0 -72 56 -72q47 0 106 63.5t98 155.5 q-8 33 -8 82q0 92 27 131q-111 0 -195 -130t-84 -230z" />
<glyph unicode="&#xbb;" horiz-adv-x="929" d="M104 602q0 29 11 45q66 -92 177 -186t212 -137q-16 -61 -134 -147.5t-192 -86.5q-31 0 -59 33q90 35 151.5 65.5t91.5 51.5l89 61q-347 180 -347 301zM412 602q0 29 10 45q66 -92 177.5 -186t211.5 -137q-16 -61 -134 -147.5t-192 -86.5q-31 0 -59 33q90 35 151.5 65.5 t92.5 51.5l88 61q-346 180 -346 301z" />
<glyph unicode="&#xbc;" horiz-adv-x="1314" d="M92 -178q137 137 451.5 700t429.5 860q10 31 67.5 62t104.5 31q-39 -98 -295 -589t-379 -687q-117 -186 -207 -281.5t-172 -95.5zM135 692h25q4 0 10 -1t8 -1q45 0 103 10q37 84 83 330t56 281q-82 -53 -105 -54q-31 0 -30 37q29 14 96.5 67.5t118.5 106.5h12 q10 -10 10 -32.5t-12 -67.5q-8 -35 -37 -174l-39 -195l-26 -127q-27 -125 -58 -161q10 2 27 2q94 0 106 -66q-53 4 -88 4q-37 0 -91 -4t-81 -4q-55 0 -88 49zM717 258q0 31 20 51q338 299 428 463q27 -4 27 -29q0 -6 -11.5 -46t-35 -139t-47.5 -222h35q23 0 73 10 q-51 -72 -104 -72h-15q-43 -215 -43 -327q-98 6 -98 53q0 39 51 274q-8 0 -20 1t-19 1h-34q-125 0 -207 -18zM829 338q49 4 89 4q10 0 29.5 -1t27.5 -1h39l10 47q25 123 45 184l-90 -88q-132 -125 -150 -145z" />
<glyph unicode="&#xbd;" horiz-adv-x="1429" d="M104 -178q137 137 451.5 700t429.5 860q10 31 67.5 62t104.5 31q-39 -98 -295 -589t-379 -687q-117 -186 -207 -281.5t-172 -95.5zM147 692h25q4 0 10 -1t8 -1q45 0 103 10q37 84 83 330t56 281q-82 -53 -104 -54q-31 0 -31 37q29 14 96.5 67.5t118.5 106.5h12 q10 -10 10.5 -32.5t-12.5 -67.5q-8 -35 -35.5 -173t-40.5 -196l-26 -127q-27 -125 -58 -161q10 2 27 2q94 0 107 -66q-53 4 -88 4q-37 0 -91.5 -4t-80.5 -4q-54 0 -89 49zM707 39q0 53 84 53q33 0 104 -14q100 88 183 241.5t83 280.5q0 139 -100 139q-59 0 -95 -57t-36 -143 q0 -33 14 -74h-16q-41 12 -59.5 32.5t-18.5 61.5q0 86 65.5 150.5t161.5 64.5q76 0 124 -54t48 -134q0 -129 -86 -276.5t-202 -243.5l16 -5q139 -33 186 -32q33 0 90 37q-29 -119 -116 -119q-59 0 -199 59l-39 17q-63 -43 -115 -43q-35 0 -56 16t-21 43zM754 36.5 q0 -20.5 28 -20.5q20 0 64 27q-37 14 -64 14q-28 0 -28 -20.5z" />
<glyph unicode="&#xbe;" horiz-adv-x="1402" d="M170 793q0 43 24.5 77.5t67.5 34.5q16 0 29 -4q-35 -29 -35 -96q0 -49 26.5 -85t71.5 -36q59 0 108.5 63.5t49.5 157.5q0 156 -121 187q76 33 124 107.5t48 139.5q0 96 -84 97q-43 0 -75.5 -29t-32.5 -78q0 -29 16 -67q-16 -33 -49 -33q-20 0 -31.5 26.5t-11.5 57.5 q0 72 59.5 114.5t137.5 42.5q68 0 115.5 -35.5t47.5 -99.5q0 -68 -48 -138.5t-120 -94.5q74 -25 109 -81t35 -116q0 -100 -84 -181t-203 -81q-88 0 -131 46.5t-43 103.5zM180 -178q137 137 451.5 700t429.5 860q10 31 67.5 62t104.5 31q-39 -98 -295 -589t-379 -687 q-117 -186 -207 -281.5t-172 -95.5zM805 258q0 31 20 51q338 299 428 463q27 -4 27 -29q0 -6 -11.5 -46t-35 -139t-47.5 -222h35q23 0 73 10q-51 -72 -104 -72h-14q-43 -215 -43 -327q-98 6 -99 53q0 39 51 274q-8 0 -20 1t-18 1h-35q-123 0 -207 -18zM918 338q49 4 88 4 q10 0 29.5 -1t27.5 -1h39l10 47q25 123 45 184l-90 -88q-131 -125 -149 -145z" />
<glyph unicode="&#xbf;" horiz-adv-x="849" d="M-102 -330q0 76 32.5 142.5t81.5 121.5l105 107q53 53 104 125t76 149q12 37 23.5 107t27.5 102q39 -18 51.5 -34.5t12.5 -51.5q0 -80 -40 -157.5t-98 -141.5l-116 -129q-59 -66 -98.5 -149.5t-39.5 -173.5q0 -100 45.5 -154.5t116.5 -54.5q113 0 211.5 116.5t98.5 274.5 q0 43 -15 104q74 -10 100.5 -44.5t26.5 -96.5q0 -162 -123 -283.5t-307 -121.5q-129 0 -202.5 63t-73.5 180zM319 705q0 35 33 64.5t74 29.5q27 0 46.5 -14.5t19.5 -39.5q0 -35 -38 -60.5t-81 -25.5q-54 1 -54 46z" />
<glyph unicode="&#xc0;" d="M-35 -72q0 154 311 641q-125 10 -221 11h-71q39 106 213 106q53 0 147 -14q158 238 320.5 447.5t257.5 297.5q59 57 98 58q43 0 108 -66q-68 -53 -193.5 -509t-125.5 -707q0 -164 76 -164q113 0 268 303l21 -21q-63 -168 -158.5 -270t-196.5 -102q-160 0 -160 274 q0 131 35 305q-131 20 -303 41q-201 -369 -356 -737q-70 38 -70 106zM444 653l150 -35q96 -23 115 -28q86 403 245 756q-186 -115 -510 -693zM891 1769q6 63 45 64q55 0 134 -102.5t79 -145.5q0 -39 -29 -53q-77 106 -229 237z" />
<glyph unicode="&#xc1;" d="M-35 -72q0 154 311 641q-125 10 -221 11h-71q39 106 213 106q53 0 147 -14q158 238 320.5 447.5t257.5 297.5q59 57 98 58q43 0 108 -66q-68 -53 -193.5 -509t-125.5 -707q0 -164 76 -164q113 0 268 303l21 -21q-63 -168 -158.5 -270t-196.5 -102q-160 0 -160 274 q0 131 35 305q-131 20 -303 41q-201 -369 -356 -737q-70 38 -70 106zM444 653l150 -35q96 -23 115 -28q86 403 245 756q-186 -115 -510 -693zM1057 1585q0 43 78.5 145.5t134.5 102.5q39 0 45 -64q-152 -131 -230 -237q-28 14 -28 53z" />
<glyph unicode="&#xc2;" d="M-35 -72q0 154 311 641q-125 10 -221 11h-71q39 106 213 106q53 0 147 -14q158 238 320.5 447.5t257.5 297.5q59 57 98 58q43 0 108 -66q-68 -53 -193.5 -509t-125.5 -707q0 -164 76 -164q113 0 268 303l21 -21q-63 -168 -158.5 -270t-196.5 -102q-160 0 -160 274 q0 131 35 305q-131 20 -303 41q-201 -369 -356 -737q-70 38 -70 106zM444 653l150 -35q96 -23 115 -28q86 403 245 756q-186 -115 -510 -693zM856 1634q0 55 92 118t141.5 63t117 -81t67.5 -147q0 -47 -35 -63q-43 88 -152 188q-135 -49 -210 -117q-21 12 -21 39z" />
<glyph unicode="&#xc3;" d="M-35 -72q0 154 311 641q-125 10 -221 11h-71q39 106 213 106q53 0 147 -14q158 238 320.5 447.5t257.5 297.5q59 57 98 58q43 0 108 -66q-68 -53 -193.5 -509t-125.5 -707q0 -164 76 -164q113 0 268 303l21 -21q-63 -168 -158.5 -270t-196.5 -102q-160 0 -160 274 q0 131 35 305q-131 20 -303 41q-201 -369 -356 -737q-70 38 -70 106zM444 653l150 -35q96 -23 115 -28q86 403 245 756q-186 -115 -510 -693zM764 1554q72 94 170 95q53 0 185 -45t212 -45q31 0 62 6q-66 -74 -160 -74q-57 0 -183 40t-192 40q-53 -1 -94 -17z" />
<glyph unicode="&#xc4;" d="M-35 -72q0 154 311 641q-125 10 -221 11h-71q39 106 213 106q53 0 147 -14q158 238 320.5 447.5t257.5 297.5q59 57 98 58q43 0 108 -66q-68 -53 -193.5 -509t-125.5 -707q0 -164 76 -164q113 0 268 303l21 -21q-63 -168 -158.5 -270t-196.5 -102q-160 0 -160 274 q0 131 35 305q-131 20 -303 41q-201 -369 -356 -737q-70 38 -70 106zM444 653l150 -35q96 -23 115 -28q86 403 245 756q-186 -115 -510 -693zM842 1647q0 37 44 66.5t91 29.5q61 0 61 -57q0 -35 -37.5 -68t-82.5 -33q-76 1 -76 62zM1137 1604q0 37 44 66.5t91 29.5 q61 0 61 -58q0 -35 -38 -67.5t-83 -32.5q-75 1 -75 62z" />
<glyph unicode="&#xc5;" d="M-35 -72q0 154 311 641q-125 10 -221 11h-71q39 106 213 106q53 0 147 -14q158 238 320.5 447.5t257.5 297.5q59 57 98 58q43 0 108 -66q-68 -53 -193.5 -509t-125.5 -707q0 -164 76 -164q113 0 268 303l21 -21q-63 -168 -158.5 -270t-196.5 -102q-160 0 -160 274 q0 131 35 305q-131 20 -303 41q-201 -369 -356 -737q-70 38 -70 106zM444 653l150 -35q96 -23 115 -28q86 403 245 756q-186 -115 -510 -693zM926 1655q0 78 75.5 153.5t174.5 75.5q156 0 155 -110q0 -78 -78.5 -154t-179.5 -76q-147 0 -147 111zM1006 1669 q0 -31 22.5 -57.5t63.5 -26.5q57 0 110 60.5t53 115.5q0 31 -23.5 53.5t-66.5 22.5q-59 0 -109 -55.5t-50 -112.5z" />
<glyph unicode="&#xc6;" horiz-adv-x="1529" d="M-35 -72q0 154 311 641q-125 10 -221 11h-71q39 106 213 106q53 0 147 -14q221 332 415.5 567.5t260.5 235.5q303 0 633 -48q-27 -74 -348 -73q-84 0 -211 4q-78 -154 -172 -508q84 -2 161.5 -10.5t166.5 -21.5t98 -15q-27 -74 -349 -74q-80 0 -108 2q-82 -348 -82 -538 q0 -49 6 -84q80 -12 294 -31t263 -31q-27 -74 -348 -74q-227 0 -305 9q-59 59 -60 231q0 131 35 305q-131 20 -303 41q-201 -369 -356 -737q-70 38 -70 106zM444 653l150 -35q96 -23 115 -28q86 403 245 756q-186 -115 -510 -693z" />
<glyph unicode="&#xc7;" horiz-adv-x="1150" d="M45 322q0 197 78 406.5t196.5 372.5t272 267.5t295.5 104.5q188 0 188 -177q0 -127 -78.5 -281.5t-158.5 -154.5q-41 0 -64 47q76 86 147.5 209t71.5 203q0 92 -100 92q-141 0 -304 -183.5t-271.5 -449.5t-108.5 -491q0 -168 71.5 -282t217.5 -114q158 0 315.5 129.5 t241.5 311.5l28 -21q-84 -162 -192 -276l-80 -123q70 49 137 49q92 0 92 -86q0 -88 -72.5 -158.5t-166.5 -70.5q-57 0 -91 21.5t-34 51.5q0 35 45 68q20 -92 86 -92q57 0 113.5 61.5t56.5 116.5q0 51 -35 51q-31 0 -98.5 -42t-75.5 -42q-12 0 -20.5 12.5t-8.5 24.5 q0 6 37 57q-160 -113 -327 -112q-203 0 -303.5 145.5t-100.5 354.5z" />
<glyph unicode="&#xc8;" horiz-adv-x="1019" d="M-31 195q0 190 156 350t375 180q-156 129 -156 324q0 168 122 296t300 128q113 0 173 -57.5t60 -164.5q0 -111 -55 -210t-108 -99q-45 0 -76 66q172 150 172 284q0 133 -146 133q-137 0 -214.5 -117.5t-77.5 -293.5q0 -207 118 -309q-197 -33 -324.5 -189t-127.5 -328 q0 -117 64.5 -207t197.5 -90q158 0 315.5 129.5t241.5 311.5l29 -21q-115 -221 -279 -355t-360 -134q-180 0 -290 107.5t-110 265.5zM629 1769q6 63 45 64q55 0 134 -102.5t79 -145.5q0 -39 -29 -53q-77 106 -229 237z" />
<glyph unicode="&#xc9;" horiz-adv-x="1019" d="M-31 195q0 190 156 350t375 180q-156 129 -156 324q0 168 122 296t300 128q113 0 173 -57.5t60 -164.5q0 -111 -55 -210t-108 -99q-45 0 -76 66q172 150 172 284q0 133 -146 133q-137 0 -214.5 -117.5t-77.5 -293.5q0 -207 118 -309q-197 -33 -324.5 -189t-127.5 -328 q0 -117 64.5 -207t197.5 -90q158 0 315.5 129.5t241.5 311.5l29 -21q-115 -221 -279 -355t-360 -134q-180 0 -290 107.5t-110 265.5zM850 1585q0 43 79 145.5t134 102.5q39 0 45 -64q-152 -131 -229 -237q-29 14 -29 53z" />
<glyph unicode="&#xca;" horiz-adv-x="1019" d="M-31 195q0 190 156 350t375 180q-156 129 -156 324q0 168 122 296t300 128q113 0 173 -57.5t60 -164.5q0 -111 -55 -210t-108 -99q-45 0 -76 66q172 150 172 284q0 133 -146 133q-137 0 -214.5 -117.5t-77.5 -293.5q0 -207 118 -309q-197 -33 -324.5 -189t-127.5 -328 q0 -117 64.5 -207t197.5 -90q158 0 315.5 129.5t241.5 311.5l29 -21q-115 -221 -279 -355t-360 -134q-180 0 -290 107.5t-110 265.5zM686 1634q0 55 92 118t141.5 63t117 -81t67.5 -147q0 -47 -35 -63q-43 88 -151 188q-137 -49 -211 -117q-21 12 -21 39z" />
<glyph unicode="&#xcb;" horiz-adv-x="1019" d="M-31 195q0 190 156 350t375 180q-156 129 -156 324q0 168 122 296t300 128q113 0 173 -57.5t60 -164.5q0 -111 -55 -210t-108 -99q-45 0 -76 66q172 150 172 284q0 133 -146 133q-137 0 -214.5 -117.5t-77.5 -293.5q0 -207 118 -309q-197 -33 -324.5 -189t-127.5 -328 q0 -117 64.5 -207t197.5 -90q158 0 315.5 129.5t241.5 311.5l29 -21q-115 -221 -279 -355t-360 -134q-180 0 -290 107.5t-110 265.5zM641 1647q0 37 44 66.5t91 29.5q61 0 62 -57q0 -35 -38 -68t-83 -33q-76 1 -76 62zM936 1604q0 37 44 66.5t91 29.5q61 0 62 -58 q0 -35 -38 -67.5t-83 -32.5q-76 1 -76 62z" />
<glyph unicode="&#xcc;" horiz-adv-x="940" d="M-78 -180q6 53 33 88t77 50t99 20.5t125 5.5q86 186 217 743t156 627q-272 -6 -461 -41q29 158 418 157q248 0 536 -43q-72 -72 -198 -71q-160 0 -224 -2q-152 -815 -202 -1022q-72 -283 -172 -350q59 -4 215.5 -20.5t228.5 -18.5q-88 -88 -231 -88h-125 q-100 0 -136 -2.5t-111 -5.5t-131.5 -10t-113.5 -17zM479 1769q6 63 45 64q55 0 134 -102.5t79 -145.5q0 -39 -28 -53q-78 106 -230 237z" />
<glyph unicode="&#xcd;" horiz-adv-x="940" d="M-78 -180q6 53 33 88t77 50t99 20.5t125 5.5q86 186 217 743t156 627q-272 -6 -461 -41q29 158 418 157q248 0 536 -43q-72 -72 -198 -71q-160 0 -224 -2q-152 -815 -202 -1022q-72 -283 -172 -350q59 -4 215.5 -20.5t228.5 -18.5q-88 -88 -231 -88h-125 q-100 0 -136 -2.5t-111 -5.5t-131.5 -10t-113.5 -17zM700 1585q0 43 79 145.5t134 102.5q39 0 45 -64q-152 -131 -229 -237q-29 14 -29 53z" />
<glyph unicode="&#xce;" horiz-adv-x="940" d="M-78 -180q6 53 33 88t77 50t99 20.5t125 5.5q86 186 217 743t156 627q-272 -6 -461 -41q29 158 418 157q248 0 536 -43q-72 -72 -198 -71q-160 0 -224 -2q-152 -815 -202 -1022q-72 -283 -172 -350q59 -4 215.5 -20.5t228.5 -18.5q-88 -88 -231 -88h-125 q-100 0 -136 -2.5t-111 -5.5t-131.5 -10t-113.5 -17zM541 1634q0 55 92 118t141 63t116.5 -81t67.5 -147q0 -47 -34 -63q-43 88 -152 188q-137 -49 -211 -117q-20 12 -20 39z" />
<glyph unicode="&#xcf;" horiz-adv-x="940" d="M-78 -180q6 53 33 88t77 50t99 20.5t125 5.5q86 186 217 743t156 627q-272 -6 -461 -41q29 158 418 157q248 0 536 -43q-72 -72 -198 -71q-160 0 -224 -2q-152 -815 -202 -1022q-72 -283 -172 -350q59 -4 215.5 -20.5t228.5 -18.5q-88 -88 -231 -88h-125 q-100 0 -136 -2.5t-111 -5.5t-131.5 -10t-113.5 -17zM494 1647q0 37 44 66.5t91 29.5q61 0 61 -57q0 -35 -38 -68t-83 -33q-75 1 -75 62zM788 1604q0 37 44.5 66.5t91.5 29.5q61 0 61 -58q0 -35 -38 -67.5t-83 -32.5q-76 1 -76 62z" />
<glyph unicode="&#xd0;" horiz-adv-x="1339" d="M66 561q31 82 256 96q84 266 149 445q74 193 160 192q29 0 57 -20q-113 -260 -227 -612q158 0 336 -19q-82 -59 -211 -59h-150q-123 -385 -190 -701q49 -8 88 -8q211 0 405.5 159t311 404.5t116.5 497.5q0 240 -112.5 361.5t-306.5 121.5q-201 0 -335 -114.5t-134 -284.5 q0 -45 10 -76q-123 0 -123 115q0 150 194.5 283t448.5 133q260 0 385 -154t125 -408q0 -215 -87 -418.5t-225.5 -350t-315.5 -234.5t-355 -88q-154 0 -219 92q51 250 180 668q-96 -1 -231 -21z" />
<glyph unicode="&#xd1;" horiz-adv-x="1310" d="M94 -178q29 111 82 284l152 496l200 666q14 51 15 84q0 47 -31 47q-92 0 -165 -126t-73 -239q0 -41 11 -71q-123 0 -123 116q0 135 142 265.5t267 130.5q39 0 71 -22.5t55.5 -73t40 -98.5t30.5 -135t21.5 -145.5t19.5 -164.5q43 -383 90 -689q37 250 164 692.5t166 534.5 q14 33 51 67t78 34q-119 -315 -262.5 -872.5t-145.5 -780.5q-66 0 -104.5 38t-54.5 128q-55 291 -187 1218q-274 -985 -346 -1171q-68 -186 -133 -209q-15 -4 -31 -4zM635 1554q72 94 170 95q53 0 185 -45t212 -45q31 0 62 6q-66 -74 -160 -74q-57 0 -183 40t-192 40 q-53 -1 -94 -17z" />
<glyph unicode="&#xd2;" horiz-adv-x="1275" d="M43 330q0 193 78 400.5t198.5 369.5t274.5 267.5t297 105.5q76 0 123 -25h-23q-127 0 -267 -109.5t-248.5 -276.5t-180.5 -373t-72 -388q0 -178 68.5 -294t206.5 -116q182 0 337.5 186.5t237.5 447.5t82 509q0 104 -22.5 193.5t-69.5 89.5q-70 0 -159 -153.5t-118 -284.5 q-98 23 -98 100q0 109 134 251t237 142q49 0 86 -38t54.5 -101.5t25.5 -126t8 -129.5q0 -266 -78 -492.5t-197.5 -367t-257 -218t-264.5 -77.5q-176 0 -284.5 139.5t-108.5 368.5zM895 1769q6 63 45 64q55 0 134 -102.5t79 -145.5q0 -39 -29 -53q-77 106 -229 237z" />
<glyph unicode="&#xd3;" horiz-adv-x="1275" d="M43 330q0 193 78 400.5t198.5 369.5t274.5 267.5t297 105.5q76 0 123 -25h-23q-127 0 -267 -109.5t-248.5 -276.5t-180.5 -373t-72 -388q0 -178 68.5 -294t206.5 -116q182 0 337.5 186.5t237.5 447.5t82 509q0 104 -22.5 193.5t-69.5 89.5q-70 0 -159 -153.5t-118 -284.5 q-98 23 -98 100q0 109 134 251t237 142q49 0 86 -38t54.5 -101.5t25.5 -126t8 -129.5q0 -266 -78 -492.5t-197.5 -367t-257 -218t-264.5 -77.5q-176 0 -284.5 139.5t-108.5 368.5zM1155 1585q0 43 79 145.5t134 102.5q39 0 45 -64q-152 -131 -229 -237q-29 14 -29 53z" />
<glyph unicode="&#xd4;" horiz-adv-x="1275" d="M43 330q0 193 78 400.5t198.5 369.5t274.5 267.5t297 105.5q76 0 123 -25h-23q-127 0 -267 -109.5t-248.5 -276.5t-180.5 -373t-72 -388q0 -178 68.5 -294t206.5 -116q182 0 337.5 186.5t237.5 447.5t82 509q0 104 -22.5 193.5t-69.5 89.5q-70 0 -159 -153.5t-118 -284.5 q-98 23 -98 100q0 109 134 251t237 142q49 0 86 -38t54.5 -101.5t25.5 -126t8 -129.5q0 -266 -78 -492.5t-197.5 -367t-257 -218t-264.5 -77.5q-176 0 -284.5 139.5t-108.5 368.5zM854 1634q0 55 92 118t141.5 63t117 -81t67.5 -147q0 -47 -35 -63q-43 88 -152 188 q-137 -49 -211 -117q-20 12 -20 39z" />
<glyph unicode="&#xd5;" horiz-adv-x="1275" d="M43 330q0 193 78 400.5t198.5 369.5t274.5 267.5t297 105.5q76 0 123 -25h-23q-127 0 -267 -109.5t-248.5 -276.5t-180.5 -373t-72 -388q0 -178 68.5 -294t206.5 -116q182 0 337.5 186.5t237.5 447.5t82 509q0 104 -22.5 193.5t-69.5 89.5q-70 0 -159 -153.5t-118 -284.5 q-98 23 -98 100q0 109 134 251t237 142q49 0 86 -38t54.5 -101.5t25.5 -126t8 -129.5q0 -266 -78 -492.5t-197.5 -367t-257 -218t-264.5 -77.5q-176 0 -284.5 139.5t-108.5 368.5zM770 1554q72 94 170 95q53 0 185 -45t212 -45q31 0 62 6q-66 -74 -160 -74q-57 0 -183 40 t-192 40q-53 -1 -94 -17z" />
<glyph unicode="&#xd6;" horiz-adv-x="1275" d="M43 330q0 193 78 400.5t198.5 369.5t274.5 267.5t297 105.5q76 0 123 -25h-23q-127 0 -267 -109.5t-248.5 -276.5t-180.5 -373t-72 -388q0 -178 68.5 -294t206.5 -116q182 0 337.5 186.5t237.5 447.5t82 509q0 104 -22.5 193.5t-69.5 89.5q-70 0 -159 -153.5t-118 -284.5 q-98 23 -98 100q0 109 134 251t237 142q49 0 86 -38t54.5 -101.5t25.5 -126t8 -129.5q0 -266 -78 -492.5t-197.5 -367t-257 -218t-264.5 -77.5q-176 0 -284.5 139.5t-108.5 368.5zM799 1647q0 37 44 66.5t91 29.5q61 0 61 -57q0 -35 -37.5 -68t-83.5 -33q-75 1 -75 62z M1094 1604q0 37 44 66.5t91 29.5q61 0 61 -58q0 -35 -38 -67.5t-83 -32.5q-75 1 -75 62z" />
<glyph unicode="&#xd7;" horiz-adv-x="772" d="M98 88q0 82 158 254q-141 152 -141 236q0 20 8 36q76 -104 186 -219q133 133 256 230q-14 -98 -106 -191l-92 -94l108 -109q90 -94 107 -190q-123 96 -256 229l-17 15q-117 -117 -203 -234q-8 17 -8 37z" />
<glyph unicode="&#xd8;" horiz-adv-x="1275" d="M43 330q0 193 78 400.5t198.5 369.5t274.5 267.5t297 105.5q76 0 123 -25h-23q-127 0 -267 -109.5t-248.5 -276.5t-180.5 -373t-72 -388q0 -174 58 -276q270 336 845 1220q-25 72 -63 72q-70 0 -159 -153.5t-118 -284.5q-98 23 -98 100q0 109 134 251t237 142 q66 0 106 -65l9 10q14 23 61 40t92 17q23 0 33 -2l-143 -213q16 -82 16 -182q0 -266 -78 -492.5t-197.5 -367t-257 -218t-264.5 -77.5q-88 0 -166 39q-94 -68 -176 -68q-12 0 -33 4q45 31 127 123q-145 136 -145 410zM356 -66q63 -43 142 -43q182 0 337.5 186.5t237.5 447.5 t82 509v33l-666 -973q-72 -101 -133 -160z" />
<glyph unicode="&#xd9;" horiz-adv-x="1445" d="M51 1104q0 133 119 252t272 119q211 0 211 -248q0 -154 -126 -553.5t-126 -540.5q0 -102 42 -165.5t130 -63.5q80 0 153 54t125 142t88 178.5t58 180.5l84 342q33 127 86.5 309t100.5 273.5t86 91.5q41 0 102 -66q-61 -43 -219 -552t-158 -771q0 -137 37 -188.5 t127 -51.5q-72 -49 -135 -49q-74 0 -120 63.5t-46 153.5q0 63 19 187q-174 -379 -443 -379q-127 0 -196.5 77.5t-69.5 200.5q0 127 128 552t128 585q0 180 -115 180q-100 0 -158.5 -116.5t-58.5 -237.5q0 -61 17 -100q-142 0 -142 141zM862 1769q6 63 45 64q55 0 134 -102.5 t79 -145.5q0 -39 -28 -53q-78 106 -230 237z" />
<glyph unicode="&#xda;" horiz-adv-x="1445" d="M51 1104q0 133 119 252t272 119q211 0 211 -248q0 -154 -126 -553.5t-126 -540.5q0 -102 42 -165.5t130 -63.5q80 0 153 54t125 142t88 178.5t58 180.5l84 342q33 127 86.5 309t100.5 273.5t86 91.5q41 0 102 -66q-61 -43 -219 -552t-158 -771q0 -137 37 -188.5 t127 -51.5q-72 -49 -135 -49q-74 0 -120 63.5t-46 153.5q0 63 19 187q-174 -379 -443 -379q-127 0 -196.5 77.5t-69.5 200.5q0 127 128 552t128 585q0 180 -115 180q-100 0 -158.5 -116.5t-58.5 -237.5q0 -61 17 -100q-142 0 -142 141zM948 1585q0 43 79 145.5t134 102.5 q39 0 45 -64q-152 -131 -229 -237q-29 14 -29 53z" />
<glyph unicode="&#xdb;" horiz-adv-x="1445" d="M51 1104q0 133 119 252t272 119q211 0 211 -248q0 -154 -126 -553.5t-126 -540.5q0 -102 42 -165.5t130 -63.5q80 0 153 54t125 142t88 178.5t58 180.5l84 342q33 127 86.5 309t100.5 273.5t86 91.5q41 0 102 -66q-61 -43 -219 -552t-158 -771q0 -137 37 -188.5 t127 -51.5q-72 -49 -135 -49q-74 0 -120 63.5t-46 153.5q0 63 19 187q-174 -379 -443 -379q-127 0 -196.5 77.5t-69.5 200.5q0 127 128 552t128 585q0 180 -115 180q-100 0 -158.5 -116.5t-58.5 -237.5q0 -61 17 -100q-142 0 -142 141zM788 1634q0 55 92.5 118t141.5 63 t116.5 -81t67.5 -147q0 -47 -35 -63q-43 88 -151 188q-137 -49 -211 -117q-21 12 -21 39z" />
<glyph unicode="&#xdc;" horiz-adv-x="1445" d="M51 1104q0 133 119 252t272 119q211 0 211 -248q0 -154 -126 -553.5t-126 -540.5q0 -102 42 -165.5t130 -63.5q80 0 153 54t125 142t88 178.5t58 180.5l84 342q33 127 86.5 309t100.5 273.5t86 91.5q41 0 102 -66q-61 -43 -219 -552t-158 -771q0 -137 37 -188.5 t127 -51.5q-72 -49 -135 -49q-74 0 -120 63.5t-46 153.5q0 63 19 187q-174 -379 -443 -379q-127 0 -196.5 77.5t-69.5 200.5q0 127 128 552t128 585q0 180 -115 180q-100 0 -158.5 -116.5t-58.5 -237.5q0 -61 17 -100q-142 0 -142 141zM784 1647q0 37 44 66.5t92 29.5 q61 0 61 -57q0 -35 -38 -68t-83 -33q-76 1 -76 62zM1079 1604q0 37 44 66.5t91 29.5q61 0 62 -58q0 -35 -38 -67.5t-83 -32.5q-76 1 -76 62z" />
<glyph unicode="&#xdd;" horiz-adv-x="1363" d="M47 1104q0 133 119 252t272 119q109 0 161 -61.5t52 -145.5q0 -68 -68.5 -315.5t-68.5 -364.5q0 -197 143 -197q129 0 240 147.5t195 362.5q139 573 245 574q53 0 115 -66q-102 -164 -155.5 -325.5t-182.5 -686.5l-41 -155q-14 -57 -45 -150.5t-59.5 -150t-74.5 -126 t-97.5 -107.5t-122 -64.5t-152.5 -26.5q-123 0 -202.5 51t-79.5 142q0 113 122 153q-16 -55 -16 -110q0 -86 45 -135.5t133 -49.5q299 0 428 580l37 184l49 236q-186 -358 -444 -359q-223 0 -223 244q0 111 69.5 362.5t69.5 341.5q0 160 -117 160q-102 0 -161.5 -116.5 t-59.5 -237.5q0 -61 16 -100q-141 0 -141 141zM967 1585q0 43 78.5 145.5t134.5 102.5q39 0 45 -64q-152 -131 -230 -237q-28 14 -28 53z" />
<glyph unicode="&#xde;" horiz-adv-x="1040" d="M63 -76q0 27 29 113q225 709 383 1100q-74 -12 -145.5 -41t-112.5 -52.5t-49 -23.5q-14 0 -39 20.5t-25 34.5q225 96 390 109q8 18 25.5 65t30.5 78t32.5 67t43 54t50 18t53.5 -16q-57 -113 -115 -264q188 -16 328.5 -119.5t140.5 -273.5q0 -94 -41 -171t-109.5 -126.5 t-146 -84t-167 -54t-154 -27.5t-121.5 -11l-68 -241l-71 -256q-55 0 -98.5 29.5t-43.5 72.5zM354 358q113 12 214.5 47t188.5 90.5t138 141.5t51 190q0 152 -99 231t-249 85q-99 -269 -244 -785z" />
<glyph unicode="&#xdf;" horiz-adv-x="874" d="M-88 -236q29 39 61 236l70 436q41 240 100.5 478.5t170 399.5t259.5 161q94 0 154.5 -60.5t60.5 -165.5q0 -139 -95 -260t-222 -203q-25 -16 -25 -26t27 -23q113 -49 189.5 -182t76.5 -254q0 -166 -122.5 -322.5t-262.5 -156.5q-68 0 -105.5 80t-37.5 188q0 98 34 171 t91 73q23 0 33 -2q-31 -16 -52.5 -106.5t-21.5 -186.5q0 -176 61 -176q80 0 159 152.5t79 314.5q0 113 -44 218t-116 161q-41 31 -41 53q0 27 49 69q72 68 115 117t82 132t39 171q0 168 -121 168q-113 0 -192.5 -160.5t-124.5 -395t-85 -472t-99.5 -419t-143.5 -208.5z" />
<glyph unicode="&#xe0;" horiz-adv-x="892" d="M-53 74q0 121 85 268t220 253.5t262 106.5q80 0 133 -43t53 -110q0 -88 -100 -88q10 37 10 71q0 115 -100 115q-90 0 -191.5 -103.5t-166 -239.5t-64.5 -236q0 -80 55 -80q37 0 86.5 34.5t90 77.5t97 116t83.5 112l73 106q82 -14 82 -51q0 -16 -59 -122.5t-59 -162.5 q0 -35 17 -62.5t52 -27.5q59 0 149.5 85t178.5 239l20 -21q-63 -164 -179 -268t-226 -104q-72 0 -110 42t-38 101q0 25 7 59q-92 -123 -165 -180t-145 -57q-68 0 -109.5 44t-41.5 126zM436 1077q6 63 45 64q55 0 134 -102.5t79 -145.5q0 -39 -28 -53q-78 106 -230 237z" />
<glyph unicode="&#xe1;" horiz-adv-x="892" d="M-53 74q0 121 85 268t220 253.5t262 106.5q80 0 133 -43t53 -110q0 -88 -100 -88q10 37 10 71q0 115 -100 115q-90 0 -191.5 -103.5t-166 -239.5t-64.5 -236q0 -80 55 -80q37 0 86.5 34.5t90 77.5t97 116t83.5 112l73 106q82 -14 82 -51q0 -16 -59 -122.5t-59 -162.5 q0 -35 17 -62.5t52 -27.5q59 0 149.5 85t178.5 239l20 -21q-63 -164 -179 -268t-226 -104q-72 0 -110 42t-38 101q0 25 7 59q-92 -123 -165 -180t-145 -57q-68 0 -109.5 44t-41.5 126zM582 907q0 43 78.5 145.5t134.5 102.5q39 0 45 -63q-152 -131 -230 -238q-28 14 -28 53z " />
<glyph unicode="&#xe2;" horiz-adv-x="892" d="M-53 74q0 121 85 268t220 253.5t262 106.5q80 0 133 -43t53 -110q0 -88 -100 -88q10 37 10 71q0 115 -100 115q-90 0 -191.5 -103.5t-166 -239.5t-64.5 -236q0 -80 55 -80q37 0 86.5 34.5t90 77.5t97 116t83.5 112l73 106q82 -14 82 -51q0 -16 -59 -122.5t-59 -162.5 q0 -35 17 -62.5t52 -27.5q59 0 149.5 85t178.5 239l20 -21q-63 -164 -179 -268t-226 -104q-72 0 -110 42t-38 101q0 25 7 59q-92 -123 -165 -180t-145 -57q-68 0 -109.5 44t-41.5 126zM455 942q0 55 92 117.5t141 62.5t116.5 -80.5t67.5 -146.5q0 -47 -34 -64 q-43 88 -152 189q-137 -49 -211 -117q-20 12 -20 39z" />
<glyph unicode="&#xe3;" horiz-adv-x="892" d="M-53 74q0 121 85 268t220 253.5t262 106.5q80 0 133 -43t53 -110q0 -88 -100 -88q10 37 10 71q0 115 -100 115q-90 0 -191.5 -103.5t-166 -239.5t-64.5 -236q0 -80 55 -80q37 0 86.5 34.5t90 77.5t97 116t83.5 112l73 106q82 -14 82 -51q0 -16 -59 -122.5t-59 -162.5 q0 -35 17 -62.5t52 -27.5q59 0 149.5 85t178.5 239l20 -21q-63 -164 -179 -268t-226 -104q-72 0 -110 42t-38 101q0 25 7 59q-92 -123 -165 -180t-145 -57q-68 0 -109.5 44t-41.5 126zM287 877q72 94 170 94q53 0 185 -45t212 -45q31 0 61 6q-66 -74 -159 -74 q-57 0 -183.5 40t-191.5 40q-53 0 -94 -16z" />
<glyph unicode="&#xe4;" horiz-adv-x="892" d="M-53 74q0 121 85 268t220 253.5t262 106.5q80 0 133 -43t53 -110q0 -88 -100 -88q10 37 10 71q0 115 -100 115q-90 0 -191.5 -103.5t-166 -239.5t-64.5 -236q0 -80 55 -80q37 0 86.5 34.5t90 77.5t97 116t83.5 112l73 106q82 -14 82 -51q0 -16 -59 -122.5t-59 -162.5 q0 -35 17 -62.5t52 -27.5q59 0 149.5 85t178.5 239l20 -21q-63 -164 -179 -268t-226 -104q-72 0 -110 42t-38 101q0 25 7 59q-92 -123 -165 -180t-145 -57q-68 0 -109.5 44t-41.5 126zM315 954q0 37 44 67t92 30q61 0 61 -58q0 -35 -38 -67.5t-83 -32.5q-76 0 -76 61z M610 911q0 37 44 67t91 30q61 0 62 -58q0 -35 -38 -67.5t-83 -32.5q-76 0 -76 61z" />
<glyph unicode="&#xe5;" horiz-adv-x="892" d="M-53 74q0 121 85 268t220 253.5t262 106.5q80 0 133 -43t53 -110q0 -88 -100 -88q10 37 10 71q0 115 -100 115q-90 0 -191.5 -103.5t-166 -239.5t-64.5 -236q0 -80 55 -80q37 0 86.5 34.5t90 77.5t97 116t83.5 112l73 106q82 -14 82 -51q0 -16 -59 -122.5t-59 -162.5 q0 -35 17 -62.5t52 -27.5q59 0 149.5 85t178.5 239l20 -21q-63 -164 -179 -268t-226 -104q-72 0 -110 42t-38 101q0 25 7 59q-92 -123 -165 -180t-145 -57q-68 0 -109.5 44t-41.5 126zM442 924q0 80 76 154.5t174 74.5q156 0 156 -111q0 -78 -79 -153.5t-179 -75.5 q-148 0 -148 111zM522 938q0 -31 22.5 -57.5t63.5 -26.5q57 0 110.5 60.5t53.5 115.5q0 31 -23.5 53.5t-66.5 22.5q-59 0 -109.5 -55.5t-50.5 -112.5z" />
<glyph unicode="&#xe6;" horiz-adv-x="1112" d="M-53 74q0 121 85 268t220 253.5t262 106.5q111 0 141 -86q137 121 269 121q127 0 127 -125q0 -150 -160 -264.5t-348 -132.5q-8 -35 -8 -74q0 -172 161 -172q125 0 252 104.5t207 258.5l25 -19q-82 -182 -227.5 -292.5t-299.5 -110.5q-117 0 -181 62.5t-69 162.5 q-90 -119 -161.5 -175t-143.5 -56q-68 0 -109.5 44t-41.5 126zM88 68q0 -80 55 -80q94 0 265 215q14 90 67 188t131 178q-18 78 -96 78q-90 0 -191.5 -103.5t-166 -239.5t-64.5 -236zM553 254q143 51 275.5 153.5t132.5 219.5q0 47 -43 47q-96 0 -209 -134t-156 -286z" />
<glyph unicode="&#xe7;" horiz-adv-x="661" d="M-10 147q0 203 144.5 374t303.5 171q78 0 112 -44t34 -107q0 -61 -28 -105.5t-75 -44.5q-35 0 -59 31q31 14 53.5 64.5t22.5 97.5q0 51 -45 51q-106 0 -221 -174t-115 -328q0 -170 149 -170q125 0 247 102.5t187 268.5l27 -21q-68 -174 -201 -295l-69 -106q70 49 137 49 q92 0 92 -86q0 -88 -72.5 -158.5t-167.5 -70.5q-57 0 -90.5 21.5t-33.5 51.5q0 35 45 68q20 -92 86 -92q57 0 113.5 61.5t56.5 116.5q0 51 -35 51q-31 0 -98.5 -42t-75.5 -42q-12 0 -20.5 12.5t-8.5 24.5q0 6 47 74q-111 -66 -213 -66t-165.5 67.5t-63.5 194.5z" />
<glyph unicode="&#xe8;" horiz-adv-x="681" d="M-29 147q0 188 172 389t349 201q127 0 126 -125q0 -150 -159.5 -264.5t-347.5 -132.5q-8 -35 -9 -74q0 -172 162 -172q125 0 252 104.5t207 258.5l25 -19q-82 -182 -227.5 -292.5t-299.5 -110.5q-121 0 -185.5 66.5t-64.5 170.5zM121 254q143 51 275 153.5t132 219.5 q0 47 -43 47q-96 0 -208.5 -134t-155.5 -286zM352 1094q6 63 45 63q55 0 134 -102.5t79 -145.5q0 -39 -28 -53q-78 107 -230 238z" />
<glyph unicode="&#xe9;" horiz-adv-x="681" d="M-29 147q0 188 172 389t349 201q127 0 126 -125q0 -150 -159.5 -264.5t-347.5 -132.5q-8 -35 -9 -74q0 -172 162 -172q125 0 252 104.5t207 258.5l25 -19q-82 -182 -227.5 -292.5t-299.5 -110.5q-121 0 -185.5 66.5t-64.5 170.5zM121 254q143 51 275 153.5t132 219.5 q0 47 -43 47q-96 0 -208.5 -134t-155.5 -286zM598 932q0 43 79 145.5t134 102.5q39 0 45 -64q-152 -131 -229 -237q-29 14 -29 53z" />
<glyph unicode="&#xea;" horiz-adv-x="681" d="M-29 147q0 188 172 389t349 201q127 0 126 -125q0 -150 -159.5 -264.5t-347.5 -132.5q-8 -35 -9 -74q0 -172 162 -172q125 0 252 104.5t207 258.5l25 -19q-82 -182 -227.5 -292.5t-299.5 -110.5q-121 0 -185.5 66.5t-64.5 170.5zM121 254q143 51 275 153.5t132 219.5 q0 47 -43 47q-96 0 -208.5 -134t-155.5 -286zM373 942q0 55 92 117.5t141 62.5t117 -80.5t68 -146.5q0 -47 -35 -64q-43 88 -152 189q-137 -49 -211 -117q-20 12 -20 39z" />
<glyph unicode="&#xeb;" horiz-adv-x="681" d="M-29 147q0 188 172 389t349 201q127 0 126 -125q0 -150 -159.5 -264.5t-347.5 -132.5q-8 -35 -9 -74q0 -172 162 -172q125 0 252 104.5t207 258.5l25 -19q-82 -182 -227.5 -292.5t-299.5 -110.5q-121 0 -185.5 66.5t-64.5 170.5zM121 254q143 51 275 153.5t132 219.5 q0 47 -43 47q-96 0 -208.5 -134t-155.5 -286zM281 954q0 37 44 67t91 30q61 0 61 -58q0 -35 -38 -67.5t-83 -32.5q-75 0 -75 61zM575 911q0 37 44.5 67t91.5 30q61 0 61 -58q0 -35 -38 -67.5t-83 -32.5q-76 0 -76 61z" />
<glyph unicode="&#xec;" horiz-adv-x="493" d="M-10 119q0 80 43 215t114.5 247.5t137.5 112.5q45 0 45 -45q0 -25 -53.5 -112.5t-106.5 -199.5t-53 -196q0 -72 23.5 -97.5t76.5 -25.5q160 0 315 314l19 -21q-57 -172 -169 -268t-235 -96q-76 0 -116.5 48t-40.5 124zM184 1087q6 63 45 64q55 0 134 -102.5t79 -145.5 q0 -39 -28 -53q-78 106 -230 237z" />
<glyph unicode="&#xed;" horiz-adv-x="493" d="M-10 119q0 80 43 215t114.5 247.5t137.5 112.5q45 0 45 -45q0 -25 -53.5 -112.5t-106.5 -199.5t-53 -196q0 -72 23.5 -97.5t76.5 -25.5q160 0 315 314l19 -21q-57 -172 -169 -268t-235 -96q-76 0 -116.5 48t-40.5 124zM336 893q0 43 79 145.5t134 102.5q39 0 45 -64 q-152 -131 -229 -237q-29 14 -29 53z" />
<glyph unicode="&#xee;" horiz-adv-x="493" d="M-10 119q0 80 43 215t114.5 247.5t137.5 112.5q45 0 45 -45q0 -25 -53.5 -112.5t-106.5 -199.5t-53 -196q0 -72 23.5 -97.5t76.5 -25.5q160 0 315 314l19 -21q-57 -172 -169 -268t-235 -96q-76 0 -116.5 48t-40.5 124zM205 942q0 55 92 117.5t141 62.5t117 -80.5 t68 -146.5q0 -47 -35 -64q-43 88 -152 189q-137 -49 -211 -117q-20 12 -20 39z" />
<glyph unicode="&#xef;" horiz-adv-x="493" d="M-10 119q0 80 43 215t114.5 247.5t137.5 112.5q45 0 45 -45q0 -25 -53.5 -112.5t-106.5 -199.5t-53 -196q0 -72 23.5 -97.5t76.5 -25.5q160 0 315 314l19 -21q-57 -172 -169 -268t-235 -96q-76 0 -116.5 48t-40.5 124zM121 954q0 37 44 67t91 30q61 0 61 -58 q0 -35 -37.5 -67.5t-82.5 -32.5q-76 0 -76 61zM416 911q0 37 44 67t91 30q61 0 61 -58q0 -35 -37.5 -67.5t-82.5 -32.5q-76 0 -76 61z" />
<glyph unicode="&#xf0;" horiz-adv-x="968" d="M-33 111q0 113 83 260t215 256.5t253 109.5q90 0 90 -63q0 -8 -4 -29q-23 31 -78 31q-102 0 -202.5 -103.5t-156.5 -228.5t-56 -209q0 -45 19.5 -71.5t53.5 -26.5q90 0 224.5 168t220.5 395q92 240 92 401q0 47 -8 89q-141 -20 -236 -48q0 39 35 63.5t75 34t111 19.5 q-43 156 -178 275q31 39 80 39q86 0 149.5 -86.5t94.5 -210.5q135 8 186 24q-31 -49 -63.5 -64.5t-110.5 -25.5q8 -47 8 -96q0 -145 -114.5 -469t-114.5 -428q0 -88 57 -88q68 0 161 85t155 218l24 -19q-59 -156 -175 -261t-222 -105q-70 0 -102.5 45t-32.5 108q0 70 39 219 q-104 -172 -216 -276t-202 -104q-59 0 -106.5 44t-47.5 128z" />
<glyph unicode="&#xf1;" horiz-adv-x="954" d="M-78 14q0 6 36 96.5t73 210t37 197.5q39 43 94 43t55 -53q0 -70 -65 -270q236 360 426 360q74 0 112.5 -54.5t38.5 -129.5q0 -68 -42 -172.5t-42 -151.5q0 -78 62 -78q127 0 286 320l23 -27q-147 -346 -354 -346q-70 0 -107 36t-37 95q0 41 30 138.5t30 146.5 q0 100 -82 100q-49 0 -105.5 -39t-99.5 -84t-101.5 -131t-83.5 -127l-75 -125q-76 0 -109 45zM201 862q72 94 170 94q53 0 185 -45t212 -45q31 0 61 6q-66 -74 -159 -73q-57 0 -183.5 40t-191.5 40q-53 -1 -94 -17z" />
<glyph unicode="&#xf2;" horiz-adv-x="747" d="M-20 121q0 131 74.5 261t160.5 130q18 0 43 -10q-39 -33 -92 -163t-53 -204q0 -117 73 -117q90 0 220 164q-57 47 -89 123t-32 158q0 106 54 182t146 76q141 0 142 -158q0 -160 -138 -364q37 -20 78 -21q59 0 123 36t96 112l25 -21q-39 -90 -110.5 -133t-147.5 -43 q-55 0 -98 21q-164 -215 -314 -216q-84 0 -122.5 51.5t-38.5 135.5zM373 457q0 -139 69 -221q119 176 119 315q0 115 -61 115q-45 0 -86 -62.5t-41 -146.5zM383 1077q6 63 45 64q55 0 134 -102.5t79 -145.5q0 -39 -29 -53q-77 106 -229 237z" />
<glyph unicode="&#xf3;" horiz-adv-x="747" d="M-20 121q0 131 74.5 261t160.5 130q18 0 43 -10q-39 -33 -92 -163t-53 -204q0 -117 73 -117q90 0 220 164q-57 47 -89 123t-32 158q0 106 54 182t146 76q141 0 142 -158q0 -160 -138 -364q37 -20 78 -21q59 0 123 36t96 112l25 -21q-39 -90 -110.5 -133t-147.5 -43 q-55 0 -98 21q-164 -215 -314 -216q-84 0 -122.5 51.5t-38.5 135.5zM373 457q0 -139 69 -221q119 176 119 315q0 115 -61 115q-45 0 -86 -62.5t-41 -146.5zM684 901q0 43 79 145.5t134 102.5q39 0 45 -64q-152 -131 -229 -237q-29 14 -29 53z" />
<glyph unicode="&#xf4;" horiz-adv-x="747" d="M-20 121q0 131 74.5 261t160.5 130q18 0 43 -10q-39 -33 -92 -163t-53 -204q0 -117 73 -117q90 0 220 164q-57 47 -89 123t-32 158q0 106 54 182t146 76q141 0 142 -158q0 -160 -138 -364q37 -20 78 -21q59 0 123 36t96 112l25 -21q-39 -90 -110.5 -133t-147.5 -43 q-55 0 -98 21q-164 -215 -314 -216q-84 0 -122.5 51.5t-38.5 135.5zM362 942q0 55 92.5 117.5t141.5 62.5t116.5 -80.5t67.5 -146.5q0 -47 -35 -64q-43 88 -151 189q-137 -49 -211 -117q-21 12 -21 39zM373 457q0 -139 69 -221q119 176 119 315q0 115 -61 115 q-45 0 -86 -62.5t-41 -146.5z" />
<glyph unicode="&#xf5;" horiz-adv-x="747" d="M-20 121q0 131 74.5 261t160.5 130q18 0 43 -10q-39 -33 -92 -163t-53 -204q0 -117 73 -117q90 0 220 164q-57 47 -89 123t-32 158q0 106 54 182t146 76q141 0 142 -158q0 -160 -138 -364q37 -20 78 -21q59 0 123 36t96 112l25 -21q-39 -90 -110.5 -133t-147.5 -43 q-55 0 -98 21q-164 -215 -314 -216q-84 0 -122.5 51.5t-38.5 135.5zM270 862q72 94 170 94q53 0 185.5 -45t212.5 -45q31 0 61 6q-66 -74 -160 -73q-57 0 -183 40t-191 40q-54 -1 -95 -17zM373 457q0 -139 69 -221q119 176 119 315q0 115 -61 115q-45 0 -86 -62.5 t-41 -146.5z" />
<glyph unicode="&#xf6;" horiz-adv-x="747" d="M-20 121q0 131 74.5 261t160.5 130q18 0 43 -10q-39 -33 -92 -163t-53 -204q0 -117 73 -117q90 0 220 164q-57 47 -89 123t-32 158q0 106 54 182t146 76q141 0 142 -158q0 -160 -138 -364q37 -20 78 -21q59 0 123 36t96 112l25 -21q-39 -90 -110.5 -133t-147.5 -43 q-55 0 -98 21q-164 -215 -314 -216q-84 0 -122.5 51.5t-38.5 135.5zM266 954q0 37 44 67t91 30q61 0 62 -58q0 -35 -38 -67.5t-83 -32.5q-76 0 -76 61zM373 457q0 -139 69 -221q119 176 119 315q0 115 -61 115q-45 0 -86 -62.5t-41 -146.5zM561 911q0 37 44 67t91 30 q61 0 62 -58q0 -35 -38 -67.5t-83 -32.5q-76 0 -76 61z" />
<glyph unicode="&#xf7;" horiz-adv-x="942" d="M51 254q37 100 387 100q166 0 344 -18q-47 -33 -122.5 -46.5t-237.5 -13.5q-226 1 -371 -22zM285 35q0 33 38.5 58.5t79.5 25.5q53 0 54 -49q0 -31 -34 -60.5t-73 -29.5q-65 0 -65 55zM408 547q0 33 38.5 58.5t79.5 25.5q53 0 54 -49q0 -31 -34 -60.5t-73 -29.5 q-65 0 -65 55z" />
<glyph unicode="&#xf8;" horiz-adv-x="827" d="M-133 -129q55 27 143 123q-35 47 -35 119q0 111 72 252t190.5 248.5t233.5 107.5q37 0 61 -14l33 55q18 31 92 31q4 0 13.5 -1t13.5 -1q-6 -6 -16 -23l-29 -45q-16 -29 -33 -53q37 -25 37 -70q0 -18 -40 -107.5t-40 -150.5q0 -76 43 -123t101 -47q86 0 161 156l27 -21 q-76 -176 -205 -176q-59 0 -110.5 37t-81.5 106q-68 -156 -161 -248t-198 -92q-43 0 -76 17q-102 -82 -169 -82q-19 0 -27 2zM106 104q195 240 383 535q-104 -6 -196 -103.5t-139.5 -212t-47.5 -196.5v-23zM152 29q16 -6 32 -6q70 0 154 91t139 224q-12 47 -12 108 q-213 -319 -303 -407z" />
<glyph unicode="&#xf9;" horiz-adv-x="897" d="M0 145q0 117 67.5 291t112.5 174q39 0 76 -41q-43 -68 -90 -193.5t-47 -217.5q0 -137 74 -138q27 0 56.5 20.5t60 60.5t58 80t58.5 100l53 100l49 98q27 59 37 76q98 -18 99 -53q0 -6 -35 -83t-69 -177.5t-34 -159.5q0 -82 68 -82q70 0 170 91t172 241l27 -19 q-66 -164 -183.5 -269t-228.5 -105q-143 0 -143 151q0 41 14 103q-143 -254 -268 -254q-68 0 -111 60t-43 146zM336 1077q6 63 45 64q55 0 134 -102.5t79 -145.5q0 -39 -29 -53q-77 106 -229 237z" />
<glyph unicode="&#xfa;" horiz-adv-x="897" d="M0 145q0 117 67.5 291t112.5 174q39 0 76 -41q-43 -68 -90 -193.5t-47 -217.5q0 -137 74 -138q27 0 56.5 20.5t60 60.5t58 80t58.5 100l53 100l49 98q27 59 37 76q98 -18 99 -53q0 -6 -35 -83t-69 -177.5t-34 -159.5q0 -82 68 -82q70 0 170 91t172 241l27 -19 q-66 -164 -183.5 -269t-228.5 -105q-143 0 -143 151q0 41 14 103q-143 -254 -268 -254q-68 0 -111 60t-43 146zM430 811q0 43 79 145.5t134 102.5q39 0 45 -64q-152 -131 -229 -237q-29 14 -29 53z" />
<glyph unicode="&#xfb;" horiz-adv-x="897" d="M0 145q0 117 67.5 291t112.5 174q39 0 76 -41q-43 -68 -90 -193.5t-47 -217.5q0 -137 74 -138q27 0 56.5 20.5t60 60.5t58 80t58.5 100l53 100l49 98q27 59 37 76q98 -18 99 -53q0 -6 -35 -83t-69 -177.5t-34 -159.5q0 -82 68 -82q70 0 170 91t172 241l27 -19 q-66 -164 -183.5 -269t-228.5 -105q-143 0 -143 151q0 41 14 103q-143 -254 -268 -254q-68 0 -111 60t-43 146zM356 942q0 55 92.5 117.5t141.5 62.5t116.5 -80.5t67.5 -146.5q0 -47 -35 -64q-43 88 -151 189q-137 -49 -211 -117q-21 12 -21 39z" />
<glyph unicode="&#xfc;" horiz-adv-x="897" d="M0 145q0 117 67.5 291t112.5 174q39 0 76 -41q-43 -68 -90 -193.5t-47 -217.5q0 -137 74 -138q27 0 56.5 20.5t60 60.5t58 80t58.5 100l53 100l49 98q27 59 37 76q98 -18 99 -53q0 -6 -35 -83t-69 -177.5t-34 -159.5q0 -82 68 -82q70 0 170 91t172 241l27 -19 q-66 -164 -183.5 -269t-228.5 -105q-143 0 -143 151q0 41 14 103q-143 -254 -268 -254q-68 0 -111 60t-43 146zM258 954q0 37 44 67t91 30q61 0 62 -58q0 -35 -38 -67.5t-83 -32.5q-76 0 -76 61zM553 911q0 37 44 67t91 30q61 0 62 -58q0 -35 -38 -67.5t-83 -32.5 q-76 0 -76 61z" />
<glyph unicode="&#xfd;" horiz-adv-x="796" d="M-41 -465q0 51 24.5 97t52 77t94.5 73t103 60l123 64q61 158 115 375q-160 -260 -299 -261q-66 0 -115 43t-49 123q0 113 67.5 280t112.5 167q18 0 54.5 -15.5t36.5 -31.5q-41 -59 -88.5 -191.5t-47.5 -210.5q0 -82 74 -82q55 0 130 76t142 187q10 35 21 94 q23 104 104 104q18 0 43 -6q0 -55 -46 -227t-113 -346q231 90 338 348l26 -21q-76 -240 -387 -383q-205 -502 -387 -501q-55 0 -92 28.5t-37 79.5zM23 -446q0 -20 14 -41t41 -21q23 0 59.5 33t92 120t106.5 212q-82 -43 -124 -69t-93 -64.5t-73.5 -79.5t-22.5 -90zM500 811 q0 43 78.5 145.5t134.5 102.5q39 0 45 -64q-152 -131 -230 -237q-28 14 -28 53z" />
<glyph unicode="&#xfe;" horiz-adv-x="800" d="M-193 -496q6 25 48 170l59 201q16 57 53 209t59.5 270.5t51 302t53.5 379.5q2 20 9 27.5t30 7.5q49 0 73.5 -27.5t24.5 -66.5q0 -31 -35.5 -259.5t-56.5 -324.5q63 123 154.5 212t199.5 89q90 0 148.5 -64.5t58.5 -168.5q0 -176 -142 -345t-341 -169q-51 0 -85 11t-34 26 q0 10 51 10q160 0 289 143.5t129 304.5q0 70 -29.5 114t-87.5 44q-96 0 -193 -108.5t-147 -221.5q-180 -764 -251 -833q-10 -10 -25 -10q-23 0 -44.5 33.5t-19.5 43.5z" />
<glyph unicode="&#xff;" horiz-adv-x="796" d="M-41 -465q0 51 24.5 97t52 77t94.5 73t103 60l123 64q61 158 115 375q-160 -260 -299 -261q-66 0 -115 43t-49 123q0 113 67.5 280t112.5 167q18 0 54.5 -15.5t36.5 -31.5q-41 -59 -88.5 -191.5t-47.5 -210.5q0 -82 74 -82q55 0 130 76t142 187q10 35 21 94 q23 104 104 104q18 0 43 -6q0 -55 -46 -227t-113 -346q231 90 338 348l26 -21q-76 -240 -387 -383q-205 -502 -387 -501q-55 0 -92 28.5t-37 79.5zM23 -446q0 -20 14 -41t41 -21q23 0 59.5 33t92 120t106.5 212q-82 -43 -124 -69t-93 -64.5t-73.5 -79.5t-22.5 -90zM258 954 q0 37 44 67t91 30q61 0 62 -58q0 -35 -38 -67.5t-83 -32.5q-76 0 -76 61zM553 911q0 37 44 67t91 30q61 0 62 -58q0 -35 -38 -67.5t-83 -32.5q-76 0 -76 61z" />
<glyph unicode="&#x152;" horiz-adv-x="1636" d="M43 330q0 193 78 400.5t198.5 369.5t274.5 267.5t297 105.5q76 0 123 -25h-23q-127 0 -267 -109.5t-248.5 -276.5t-180.5 -373t-72 -388q0 -178 68.5 -294t206.5 -116q158 0 298 185.5t218 448.5t78 509q0 260 -62 260q-76 0 -244 -415q-98 23 -98 100q0 109 135 251 t240 142q135 8 233 8q293 0 398 -34q-27 -74 -348 -74q-35 0 -86.5 3t-77.5 3q23 -68 22 -160q0 -201 -26 -370q279 0 415 -21q-37 -100 -284 -100q-74 0 -152 4q-70 -317 -135.5 -475t-200.5 -242q106 -4 342 -4q25 0 117 4t127 4q33 0 41 -2q-18 -47 -203.5 -71.5 t-406.5 -24.5q-55 0 -175 1t-180 1q-203 0 -321.5 128t-118.5 380z" />
<glyph unicode="&#x153;" horiz-adv-x="1112" d="M-53 74q0 121 85 268t220 253.5t262 106.5q111 0 141 -86q137 121 269 121q127 0 127 -125q0 -150 -160 -264.5t-348 -132.5q-8 -35 -8 -74q0 -172 161 -172q125 0 252 104.5t207 258.5l25 -19q-82 -182 -227.5 -292.5t-299.5 -110.5q-117 0 -181 62.5t-69 162.5 q-90 -119 -161.5 -175t-143.5 -56q-68 0 -109.5 44t-41.5 126zM88 68q0 -80 55 -80q94 0 265 215l6 30q-66 23 -102 83.5t-36 132.5q0 31 7 57q-84 -96 -139.5 -222t-55.5 -216zM356 418q0 -82 72 -131q53 156 178 282q-18 78 -96 78q-57 0 -105.5 -69.5t-48.5 -159.5z M553 254q143 51 275.5 153.5t132.5 219.5q0 47 -43 47q-96 0 -209 -134t-156 -286z" />
<glyph unicode="&#x178;" horiz-adv-x="1363" d="M47 1104q0 133 119 252t272 119q109 0 161 -61.5t52 -145.5q0 -68 -68.5 -315.5t-68.5 -364.5q0 -197 143 -197q129 0 240 147.5t195 362.5q139 573 245 574q53 0 115 -66q-102 -164 -155.5 -325.5t-182.5 -686.5l-41 -155q-14 -57 -45 -150.5t-59.5 -150t-74.5 -126 t-97.5 -107.5t-122 -64.5t-152.5 -26.5q-123 0 -202.5 51t-79.5 142q0 113 122 153q-16 -55 -16 -110q0 -86 45 -135.5t133 -49.5q299 0 428 580l37 184l49 236q-186 -358 -444 -359q-223 0 -223 244q0 111 69.5 362.5t69.5 341.5q0 160 -117 160q-102 0 -161.5 -116.5 t-59.5 -237.5q0 -61 16 -100q-141 0 -141 141zM772 1647q0 37 44 66.5t91 29.5q61 0 62 -57q0 -35 -38 -68t-83 -33q-76 1 -76 62zM1067 1604q0 37 44 66.5t91 29.5q61 0 62 -58q0 -35 -38 -67.5t-83 -32.5q-76 1 -76 62z" />
<glyph unicode="&#x2c6;" horiz-adv-x="415" d="M0 942q0 55 92 117.5t141.5 62.5t117 -80.5t67.5 -146.5q0 -47 -35 -64q-43 88 -152 189q-137 -49 -211 -117q-20 12 -20 39z" />
<glyph unicode="&#x2dc;" horiz-adv-x="626" d="M0 862q72 94 170 94q53 0 185 -45t212 -45q31 0 62 6q-66 -74 -160 -73q-57 0 -183 40t-192 40q-53 -1 -94 -17z" />
<glyph unicode="&#x2000;" horiz-adv-x="942" />
<glyph unicode="&#x2001;" horiz-adv-x="1884" />
<glyph unicode="&#x2002;" horiz-adv-x="942" />
<glyph unicode="&#x2003;" horiz-adv-x="1884" />
<glyph unicode="&#x2004;" horiz-adv-x="626" />
<glyph unicode="&#x2005;" horiz-adv-x="471" />
<glyph unicode="&#x2006;" horiz-adv-x="313" />
<glyph unicode="&#x2007;" horiz-adv-x="313" />
<glyph unicode="&#x2008;" horiz-adv-x="235" />
<glyph unicode="&#x2009;" horiz-adv-x="376" />
<glyph unicode="&#x200a;" horiz-adv-x="104" />
<glyph unicode="&#x2010;" horiz-adv-x="991" d="M74 295q37 100 387 100q166 0 344 -18q-82 -59 -211 -60h-195q-184 1 -325 -22z" />
<glyph unicode="&#x2011;" horiz-adv-x="991" d="M74 295q37 100 387 100q166 0 344 -18q-82 -59 -211 -60h-195q-184 1 -325 -22z" />
<glyph unicode="&#x2012;" horiz-adv-x="991" d="M74 295q37 100 387 100q166 0 344 -18q-82 -59 -211 -60h-195q-184 1 -325 -22z" />
<glyph unicode="&#x2013;" horiz-adv-x="1386" d="M51 233q8 96 156.5 132t421.5 36q176 0 353 -18t275 -18q-106 -92 -268 -93q-104 0 -242.5 -1t-186.5 -1t-128 -1t-106.5 -3t-81 -7t-92.5 -10.5t-101 -15.5z" />
<glyph unicode="&#x2014;" horiz-adv-x="1716" d="M72 233q10 96 195.5 132t525.5 36q221 0 442 -18t344 -18q-133 -92 -334 -93q-131 0 -304 -1t-232.5 -1t-159.5 -1t-134 -3t-101.5 -7t-114.5 -11z" />
<glyph unicode="&#x2018;" horiz-adv-x="294" d="M258 1417q0 23 15.5 40.5t35.5 17.5q8 -35 58.5 -109t66.5 -111q4 -12 4 -18q0 -35 -39 -57q-12 18 -55 77.5t-64.5 97t-21.5 62.5z" />
<glyph unicode="&#x2019;" horiz-adv-x="256" d="M254 1237q0 6 4 18q16 37 66.5 111t58.5 109q20 0 35.5 -17.5t15.5 -40.5q0 -25 -21.5 -62.5t-64.5 -97t-55 -77.5q-39 22 -39 57z" />
<glyph unicode="&#x201a;" horiz-adv-x="401" d="M-20 -104q0 68 40.5 143.5t83.5 75.5q20 0 36 -17.5t16 -40.5q-18 -18 -35 -39.5t-27 -38t-23.5 -42t-19.5 -37.5l-20 -41q-14 -29 -17 -39q-34 21 -34 76z" />
<glyph unicode="&#x201c;" horiz-adv-x="520" d="M258 1417q0 23 15.5 40.5t35.5 17.5q8 -35 58.5 -109t66.5 -111q4 -12 4 -18q0 -35 -39 -57q-12 18 -55 77.5t-64.5 97t-21.5 62.5zM483 1417q0 23 15.5 40.5t36.5 17.5q8 -35 58 -109t66 -111q4 -12 5 -18q0 -35 -39 -57q-12 18 -55.5 77.5t-65 97t-21.5 62.5z" />
<glyph unicode="&#x201d;" horiz-adv-x="481" d="M254 1237q0 6 4 18q16 37 66.5 111t58.5 109q20 0 35.5 -17.5t15.5 -40.5q0 -25 -21.5 -62.5t-64.5 -97t-55 -77.5q-39 22 -39 57zM479 1237q0 6 4 18q16 37 66.5 111t58.5 109q20 0 35.5 -17.5t15.5 -40.5q0 -25 -21.5 -62.5t-64.5 -97t-55 -77.5q-39 22 -39 57z" />
<glyph unicode="&#x201e;" horiz-adv-x="626" d="M-20 -104q0 68 40.5 143.5t83.5 75.5q20 0 36 -17.5t16 -40.5q-18 -18 -35 -39.5t-27 -38t-23.5 -42t-19.5 -37.5l-20 -41q-14 -29 -17 -39q-34 21 -34 76zM205 -104q0 68 41 143.5t84 75.5q20 0 35.5 -17.5t15.5 -40.5q-18 -18 -34.5 -39.5t-27 -38t-22.5 -42.5l-21 -37 q-6 -12 -19 -41t-17 -39q-35 21 -35 76z" />
<glyph unicode="&#x2022;" horiz-adv-x="495" d="M82 319q0 49 45 94.5t98 45.5q37 0 68 -26.5t31 -63.5q0 -43 -47.5 -85t-102.5 -42q-39 0 -65.5 19t-26.5 58z" />
<glyph unicode="&#x2026;" horiz-adv-x="1077" d="M16 35q0 33 39 58.5t80 25.5q53 0 53 -49q0 -31 -33.5 -60.5t-72.5 -29.5q-66 0 -66 55zM336 35q0 33 39 58.5t80 25.5q53 0 53 -49q0 -31 -34 -60.5t-73 -29.5q-65 0 -65 55zM655 35q0 33 39 58.5t80 25.5q53 0 53 -49q0 -31 -33.5 -60.5t-72.5 -29.5q-66 0 -66 55z" />
<glyph unicode="&#x202f;" horiz-adv-x="376" />
<glyph unicode="&#x2039;" horiz-adv-x="583" d="M12 324q100 43 212 137t177 186q10 -16 11 -45q0 -121 -346 -301l86 -61q29 -20 93 -51t152 -66q-29 -33 -59 -33q-74 0 -192 86.5t-134 147.5z" />
<glyph unicode="&#x203a;" horiz-adv-x="622" d="M104 602q0 29 11 45q66 -92 177 -186t212 -137q-16 -61 -134 -147.5t-192 -86.5q-31 0 -59 33q90 35 151.5 65.5t91.5 51.5l89 61q-347 180 -347 301z" />
<glyph unicode="&#x205f;" horiz-adv-x="471" />
<glyph unicode="&#x20ac;" horiz-adv-x="1404" d="M37 317q6 125 225 140q4 31 17 92l-132 -17l-69 -10q6 123 229 142q102 328 331.5 568.5t457.5 240.5q188 0 188 -177q0 -127 -79 -281.5t-158 -154.5q-41 0 -64 47q76 86 147.5 209t71.5 203q0 92 -100 92q-160 0 -340 -227.5t-277 -521.5q59 -4 176 -16.5t168 -14.5 q-33 -47 -91 -57.5t-283 -14.5q-6 -27 -21 -100q63 -4 183 -17.5t171 -15.5q-33 -47 -91 -56.5t-277 -13.5q-2 -25 -2 -69q0 -168 71.5 -282t217.5 -114q158 0 315.5 129.5t241.5 311.5l28 -21q-111 -217 -275.5 -353t-359.5 -136q-203 0 -303 145.5t-100 354.5v24 q-51 -4 -148 -18z" />
<glyph unicode="&#x2122;" horiz-adv-x="1140" d="M289 1393q2 45 101 59t294 14h158q47 0 68.5 -38.5t21.5 -147.5q0 -47 -7 -145.5t-7 -112.5q27 45 79 165t97 194.5t86 74.5q10 0 28 -6l6 -6q-29 -70 -70.5 -269.5t-41.5 -300.5q0 -29 6 -47l8 -24q-49 0 -66.5 20.5t-17.5 73.5q0 135 68 395q-84 -143 -191 -411 q-8 -8 -18 -9q-43 0 -43 103q0 45 6 172t6 174v8q-143 -346 -190 -436t-92 -90l40 92l54 115l82 178l80 182q10 20 10 31q0 16 -21 16q-168 0 -256 -12q-168 -424 -168 -580q0 -10 4 -22q-84 0 -84 61q0 43 62.5 220.5t130.5 318.5q-135 0 -213 -14z" />
<glyph unicode="&#xe000;" horiz-adv-x="680" d="M0 680h680v-680h-680v680z" />
<glyph unicode="&#xfb01;" horiz-adv-x="1134" d="M-139 -393q0 158 90 469t219 622.5t287.5 544t279.5 232.5q70 0 70 -89q0 -168 -169 -394t-378 -374q-23 -49 -35 -90q33 -12 47 -51q53 -174 185 -174q123 0 256 133q47 113 103 185.5t110 72.5q45 0 45 -45q0 -25 -53.5 -112.5t-106.5 -199.5t-53 -196 q0 -72 23.5 -97.5t76.5 -25.5q158 0 316 314l18 -21q-57 -172 -169 -268t-235 -96q-76 0 -116.5 48t-40.5 124q0 90 49 233q-125 -102 -258 -102q-70 0 -141 33q8 -57 8 -131q0 -170 -45 -339t-120 -277.5t-151 -108.5q-43 0 -77.5 40t-34.5 140zM-12 -377q0 -98 39 -98 q59 0 134 219t75 414q0 176 -62 227q-186 -539 -186 -762zM293 702q184 170 309 353.5t125 253.5q0 29 -29 28q-76 0 -184 -177t-221 -458zM950 952q0 41 49.5 74t100.5 33q68 0 67 -64q0 -39 -42 -74.5t-91 -35.5q-84 -1 -84 67z" />
<glyph unicode="&#xfb02;" horiz-adv-x="1122" d="M-139 -393q0 158 90 469t219 622.5t287.5 544t279.5 232.5q70 0 70 -89q0 -168 -169 -394t-378 -374q-23 -49 -35 -90q39 -12 47 -63q25 -207 189 -207q94 0 209 68q47 211 173 487.5t254 469t187 192.5q29 0 48.5 -51.5t19.5 -100.5q0 -154 -168 -468t-377 -486 q-27 -119 -27 -207q0 -158 90 -158q76 0 154 95.5t139 232.5l33 -17q-176 -377 -385 -376q-164 0 -164 211q0 55 12 122q-115 -63 -227 -63q-78 0 -147 39q4 -66 4 -96q0 -170 -45 -339t-120 -277.5t-151 -108.5q-43 0 -77.5 40t-34.5 140zM-12 -377q0 -98 39 -98 q59 0 134 218t75 404q0 162 -64 230q-184 -539 -184 -754zM293 702q184 170 309 353.5t125 253.5q0 29 -29 28q-76 0 -184 -177t-221 -458zM825 438q168 170 315.5 447.5t147.5 390.5q0 33 -14 33q-29 0 -114 -132.5t-183.5 -343.5t-151.5 -395z" />
<glyph unicode="&#xfb03;" horiz-adv-x="1771" d="M1268 119q0 80 43 215t114.5 247.5t137.5 112.5q45 0 45 -45q0 -25 -53.5 -112.5t-106.5 -199.5t-53 -196q0 -72 23.5 -97.5t76.5 -25.5q160 0 315 314l19 -21q-57 -172 -169 -268t-235 -96q-76 0 -116.5 48t-40.5 124zM1587 952q0 41 49.5 74t100.5 33q68 0 67 -62 q0 -41 -42 -76.5t-91 -35.5q-84 -1 -84 67zM500 -393q0 158 90 469t219 622.5t287.5 544t279.5 232.5q70 0 70 -91q0 -166 -169 -393t-378 -373q-14 -33 -39 -102q43 -10 51 -65q10 -70 16.5 -107t21 -85t30.5 -70.5t45 -40t66 -17.5q68 0 115.5 47t111.5 154l31 -21 q-49 -115 -125 -174t-144 -59q-78 0 -151 67q-2 -260 -101.5 -489t-214.5 -229q-43 0 -77.5 40t-34.5 140zM627 -377q0 -98 39 -98q57 0 133 218t76 380q0 102 -70 239q-178 -524 -178 -739zM932 702q184 170 309 353.5t125 253.5q0 29 -29 28q-76 0 -184 -177t-221 -458z M-139 -393q0 158 90 469t219 622.5t287.5 544t279.5 232.5q70 0 70 -91q0 -166 -169 -393t-378 -373q-14 -33 -39 -102q43 -10 51 -65q10 -70 16.5 -107t21 -85t30.5 -70.5t45 -40t66 -17.5q68 0 115.5 47t111.5 154l31 -21q-49 -115 -125 -174t-144 -59q-78 0 -151 67 q-2 -260 -101.5 -489t-214.5 -229q-43 0 -77.5 40t-34.5 140zM-12 -377q0 -98 39 -98q57 0 133 218t76 380q0 102 -70 239q-178 -524 -178 -739zM293 702q184 170 309 353.5t125 253.5q0 29 -29 28q-76 0 -184 -177t-221 -458z" />
<glyph unicode="&#xfb04;" horiz-adv-x="1761" d="M1284 150q0 139 80 371.5t185.5 440t213 360.5t158.5 153q29 0 48.5 -51.5t19.5 -100.5q0 -154 -168 -468t-377 -486q-27 -119 -27 -207q0 -158 90 -158q76 0 155 96.5t140 231.5l31 -17q-176 -377 -383 -376h-2q-164 0 -164 211zM1462 438q168 170 315.5 447.5 t147.5 390.5q0 33 -14 33q-29 0 -114 -132.5t-183.5 -343.5t-151.5 -395zM500 -393q0 158 90 469t219 622.5t287.5 544t279.5 232.5q70 0 70 -91q0 -166 -169 -393t-378 -373q-14 -33 -39 -102q43 -10 51 -65q10 -70 16.5 -107t21 -85t30.5 -70.5t45 -40t66 -17.5 q68 0 115.5 47t111.5 154l31 -21q-49 -115 -125 -174t-144 -59q-78 0 -151 67q-2 -260 -101.5 -489t-214.5 -229q-43 0 -77.5 40t-34.5 140zM627 -377q0 -98 39 -98q57 0 133 218t76 380q0 102 -70 239q-178 -524 -178 -739zM932 702q184 170 309 353.5t125 253.5 q0 29 -29 28q-76 0 -184 -177t-221 -458zM-139 -393q0 158 90 469t219 622.5t287.5 544t279.5 232.5q70 0 70 -91q0 -166 -169 -393t-378 -373q-14 -33 -39 -102q43 -10 51 -65q10 -70 16.5 -107t21 -85t30.5 -70.5t45 -40t66 -17.5q68 0 115.5 47t111.5 154l31 -21 q-49 -115 -125 -174t-144 -59q-78 0 -151 67q-2 -260 -101.5 -489t-214.5 -229q-43 0 -77.5 40t-34.5 140zM-12 -377q0 -98 39 -98q57 0 133 218t76 380q0 102 -70 239q-178 -524 -178 -739zM293 702q184 170 309 353.5t125 253.5q0 29 -29 28q-76 0 -184 -177t-221 -458z " />
</font>
</defs>
</svg>
