<?xml version="1.0" standalone="no"?>
<!DOCTYPE svg PUBLIC "-//W3C//DTD SVG 1.1//EN" "http://www.w3.org/Graphics/SVG/1.1/DTD/svg11.dtd" >
<svg xmlns="http://www.w3.org/2000/svg">
<metadata>
This is a custom SVG webfont generated by Font Squirrel.
Copyright   : Copyright c 2011 by Pablo Impallari wwwimpallaricom Igino Marini wwwikerncom All rights reserved
Designer    : Pablo Impallari
Foundry     : Pablo Impallari wwwimpallaricom Igino Marini wwwikerncom
Foundry URL : wwwimpallaricom
</metadata>
<defs>
<font id="DancingScriptBold" horiz-adv-x="1292" >
<font-face units-per-em="2048" ascent="1638" descent="-410" />
<missing-glyph horiz-adv-x="530" />
<glyph unicode=" "  horiz-adv-x="530" />
<glyph unicode="&#x09;" horiz-adv-x="530" />
<glyph unicode="&#xa0;" horiz-adv-x="530" />
<glyph unicode="!" horiz-adv-x="604" d="M0 49q0 37 42 66.5t91 29.5q70 0 70 -63q0 -37 -38 -69.5t-83 -32.5q-82 -1 -82 69zM125 221q0 100 111 387l79 203l78 193q49 121 84 188.5t77 141t78 107.5t66 34q23 0 40.5 -18.5t17.5 -43.5q0 -82 -242 -554t-364 -646z" />
<glyph unicode="&#x22;" horiz-adv-x="552" d="M309 1270q0 66 41 137.5t88 71.5q27 0 45.5 -21.5t18.5 -58.5q-43 -41 -68.5 -85t-66.5 -134q-58 29 -58 90zM545 1264q0 68 39 141.5t88 73.5q29 0 46 -21.5t17 -58.5q-16 -14 -29.5 -30.5t-22.5 -29t-21 -36.5l-19 -35l-22 -43q-16 -31 -21 -45q-55 29 -55 84z" />
<glyph unicode="#" horiz-adv-x="1474" d="M39 307q8 160 463 170l8 47q6 37 10 51q-33 0 -272 -18l-135 -10q10 158 440 168q27 129 69 355t58 302q6 27 12 43.5t35 34.5t78 29q-8 -37 -27 -144l-53 -291l-59 -325q154 -4 249 -8q35 166 80 407.5t47 253.5q4 27 12.5 43.5t37 34.5t77.5 29q-10 -39 -30 -150 l-52 -295q-33 -182 -61 -329q47 -2 143.5 -7.5t176 -9.5t139.5 -4q-51 -43 -102.5 -65.5t-80 -25.5t-73.5 -3q-47 0 -121 -1t-102 -1q-2 -14 -12.5 -59.5t-12.5 -65.5q369 -18 426 -19q-51 -43 -101.5 -65.5t-78 -25.5t-72.5 -3q-133 0 -197 -2q-72 -375 -143.5 -527.5 t-216.5 -152.5q117 139 238 674h-244q-33 -158 -52.5 -244t-51 -182t-63.5 -141t-80 -76t-112 -31q115 137 238 670q-14 0 -297 -21zM618 477q127 0 246 -6l25 115q-172 0 -250 -4z" />
<glyph unicode="$" horiz-adv-x="1157" d="M27 201q0 133 97 205.5t218 72.5q-133 -135 -133 -282q0 -92 63.5 -148.5t178.5 -71.5q59 211 135 555q-72 39 -111 64t-90 69t-74.5 97t-23.5 121q0 168 132 296t326 158q0 47 38 88t98 50q-25 -111 -29 -132q246 -6 246 -223q0 -168 -105 -340q-45 8 -70.5 37t-25.5 64 q0 33 37 142.5t37 152.5q0 88 -133 90l-111 -604q72 -37 115 -63t94 -70t75.5 -101t24.5 -129q0 -178 -138 -287.5t-343 -128.5q-82 -215 -248 -215q63 82 111 215q-168 14 -279.5 95.5t-111.5 222.5zM446 932q0 -125 181 -217q86 446 102 538q-127 -31 -205 -125t-78 -196z M586 -20q129 16 202.5 85.5t73.5 172.5q0 78 -44 133t-126 104q-73 -389 -106 -495z" />
<glyph unicode="%" horiz-adv-x="1515" d="M180 -178q150 145 476.5 704t437.5 848q12 33 73.5 67t114.5 34q-25 -100 -277.5 -581.5t-390.5 -694.5q-121 -186 -222 -281.5t-212 -95.5zM223 928q0 154 89 299t225 145q88 0 143 -61.5t55 -161.5q0 -150 -92 -302.5t-227 -152.5q-92 0 -142.5 68t-50.5 166zM369 924 q0 -123 59 -123q68 0 119 119.5t51 238.5q0 111 -57 111q-76 0 -124 -117.5t-48 -228.5zM930 229q0 156 88 300.5t225 144.5q88 0 142.5 -61.5t54.5 -161.5q0 -92 -37 -194.5t-113 -180.5t-168 -78q-94 0 -143 66.5t-49 164.5zM1073 221q0 -117 60 -117q68 0 120 119t52 238 q0 113 -60 112q-78 0 -125 -119.5t-47 -232.5z" />
<glyph unicode="&#x26;" horiz-adv-x="1382" d="M35 203q0 188 149.5 345t372.5 187q-147 131 -147 307q0 172 126 301.5t320 129.5q123 0 187.5 -58.5t64.5 -169.5q0 -117 -55.5 -220t-114.5 -103q-51 0 -98 84q176 143 176 268q0 59 -35 94t-102 35q-133 0 -209 -109.5t-76 -267.5q0 -215 149 -332q-213 -33 -348 -181 t-135 -310q0 -111 66.5 -197t199.5 -86q215 0 391.5 186.5t206.5 421.5q-68 -4 -278 -41q2 174 231 175q66 0 174.5 -17.5t175.5 -17.5q-29 -61 -53 -78t-55 -17q-27 0 -62.5 -1t-52.5 -1q-29 -283 -245 -495.5t-486 -212.5q-195 0 -316.5 110.5t-121.5 270.5z" />
<glyph unicode="'" horiz-adv-x="319" d="M309 1270q0 66 41 137.5t88 71.5q25 0 45.5 -20.5t20.5 -47.5l-2 -12q-61 -59 -115 -174l-20 -45q-58 29 -58 90z" />
<glyph unicode="(" horiz-adv-x="604" d="M158 393q0 229 71.5 440t175 346.5t212 215.5t188.5 80q-248 -193 -372 -491t-124 -613q0 -322 113 -490q-20 -41 -57 -59q-86 47 -146.5 209.5t-60.5 361.5z" />
<glyph unicode=")" horiz-adv-x="645" d="M-70 -109q238 158 387.5 426.5t149.5 612.5q0 154 -38 286t-144 269q117 -31 218 -195t101 -403q0 -174 -47 -345t-118.5 -297t-154.5 -224.5t-158 -148.5t-126 -50q-29 -1 -70 69z" />
<glyph unicode="*" horiz-adv-x="851" d="M260 1206q182 6 236 11q-92 137 -93 208q0 27 21.5 49.5t21.5 26.5q23 -39 54.5 -98.5t50 -91t39.5 -60.5q70 213 217 246q-20 -59 -71.5 -159.5t-59.5 -118.5q195 0 297 -82l-277 -23q35 -47 50.5 -72.5t33 -83t19.5 -131.5q-80 86 -203 260q-63 -115 -117.5 -174 t-128.5 -63q29 41 53.5 83t54 100.5t40.5 78.5q-100 0 -161 18.5t-77 75.5z" />
<glyph unicode="+" horiz-adv-x="903" d="M27 279q41 123 335 129v84q0 117 80 237q25 -197 29 -321q143 -2 365 -21q-119 -84 -258 -84h-105q-2 -145 -27.5 -227t-95.5 -90q16 133 17 317q-170 1 -340 -24z" />
<glyph unicode="," horiz-adv-x="442" d="M10 -90q0 66 41 138.5t88 72.5q27 0 46.5 -20.5t19.5 -47.5q-16 -18 -30.5 -37.5t-23 -32t-23.5 -39t-18.5 -33.5t-21.5 -46t-22 -45q-56 33 -56 90z" />
<glyph unicode="-" horiz-adv-x="1038" d="M113 291q12 43 55 70.5t100.5 39t95 15.5t74.5 4q184 0 443 -14q-20 -47 -93 -79t-157 -32q-23 0 -111 6t-145 6q-139 0 -262 -16z" />
<glyph unicode="." horiz-adv-x="495" d="M57 57q0 35 44 72t85 37q68 0 68 -64q0 -33 -29.5 -77.5t-77.5 -44.5q-45 0 -67.5 23t-22.5 54z" />
<glyph unicode="/" horiz-adv-x="727" d="M-129 -332q223 215 803 1706q12 35 77.5 67t139.5 32q-51 -135 -604 -1424q-76 -178 -190.5 -279.5t-225.5 -101.5z" />
<glyph unicode="0" horiz-adv-x="1351" d="M129 379q0 170 54.5 359.5t148.5 354t242.5 273.5t318.5 109q203 0 323.5 -149.5t120.5 -420.5q0 -186 -59 -378.5t-160.5 -349.5t-249 -256t-309.5 -99q-209 0 -319.5 156.5t-110.5 400.5zM334 344q0 -195 67.5 -309.5t186.5 -114.5q147 0 280 177t208 422t75 466 q0 186 -62.5 296t-195.5 110q-129 0 -240.5 -111t-178 -276.5t-103.5 -340t-37 -319.5z" />
<glyph unicode="1" horiz-adv-x="802" d="M-70 -63q18 0 51 -3.5t56 -3.5q70 0 213 21q53 121 104.5 350t99.5 500.5t66 353.5q-176 -117 -229 -117q-59 0 -60 84q68 33 207.5 136.5t255.5 214.5q27 -25 27 -80q0 -35 -19.5 -108t-25.5 -114q-39 -250 -65.5 -400t-89 -388t-138.5 -414q49 4 72 4q186 0 219 -145 q-100 12 -189 12q-66 0 -188.5 -9t-149.5 -9q-127 0 -217 115z" />
<glyph unicode="2" horiz-adv-x="1226" d="M-12 14q0 109 172 109q84 0 223 -27q203 176 373 474t170 538q0 139 -60.5 211t-160.5 72q-131 0 -203 -111t-72 -254q0 -88 39 -178l-39 4q-158 16 -158 197q0 170 130 298t325 128q178 0 275.5 -113t97.5 -291q0 -242 -172 -527.5t-408 -475.5q305 -68 422 -68 q49 0 85 13.5t106 49.5q-33 -127 -89.5 -184t-146.5 -57q-47 0 -117.5 17.5t-117 33.5t-144.5 53l-125 47q-141 -84 -243 -84q-72 0 -117 35t-45 90zM80 8q4 -35 65 -35q49 0 125 43q-78 25 -129 25q-61 0 -61 -33z" />
<glyph unicode="3" horiz-adv-x="1110" d="M39 127q0 88 48 157.5t134 69.5q29 0 72 -8q-37 -31 -61.5 -87t-24.5 -112q0 -90 63.5 -160.5t157.5 -70.5q125 0 224.5 121t99.5 299q0 131 -64.5 235.5t-212.5 143.5q164 70 266.5 216t102.5 279q0 92 -53.5 136.5t-131.5 44.5q-90 0 -158.5 -53.5t-68.5 -141.5 q0 -66 41 -141q-12 -27 -42 -49.5t-58 -22.5q-43 0 -70 56.5t-27 123.5q0 139 123 225.5t285 86.5q141 0 244.5 -78t103.5 -211q0 -129 -93 -261t-234 -186q150 -51 220 -161.5t70 -231.5q0 -201 -168 -362.5t-415 -161.5q-186 0 -279.5 93t-93.5 212z" />
<glyph unicode="4" horiz-adv-x="1040" d="M6 442q0 33 16.5 65t33 50t53.5 51q596 555 819 867q51 -25 51 -72q0 -49 -41 -113q-47 -193 -135 -684q156 0 237 23q-119 -160 -262 -160q-80 -453 -80 -647q-92 6 -142 35.5t-50 74.5q0 33 90 539q-74 8 -143 8q-74 0 -248 -11.5t-199 -25.5zM244 610q80 6 184 6 q76 0 199 -4q63 301 108 451l-233 -211q-182 -166 -258 -242z" />
<glyph unicode="5" horiz-adv-x="1050" d="M18 125q0 90 47.5 159.5t133.5 69.5q31 0 73 -8q-86 -70 -86 -205q0 -92 53.5 -158.5t157.5 -66.5q152 0 245 134t93 300q0 135 -69.5 223.5t-208.5 88.5q-76 0 -215 -27q14 100 57 266t96 350l62 213q117 -29 235 -28q125 0 340 41q14 -57 15 -78q0 -82 -82 -120 t-193 -38q-57 0 -134 12.5t-99 12.5q-31 0 -68 -107.5t-71.5 -256t-43.5 -171.5q88 16 168 17q215 0 329 -110t114 -292q0 -221 -159 -372.5t-409 -151.5q-197 0 -289 91t-92 212z" />
<glyph unicode="6" horiz-adv-x="1212" d="M119 344q0 172 57 365.5t156.5 366.5t258.5 286t339 113q98 0 158.5 -33t60.5 -99q0 -82 -123 -114q4 41 4 67q0 49 -22.5 76t-83.5 27q-121 0 -232.5 -112.5t-186.5 -271.5t-120 -345q145 111 340 110q176 0 293 -103.5t117 -305.5q0 -236 -155 -392.5t-402 -156.5 q-233 0 -346 142t-113 380zM336 297q0 -63 11 -122.5t37 -121t79 -99.5t125 -38q147 0 240.5 141.5t93.5 321.5q0 152 -75 227.5t-200 75.5q-160 0 -235.5 -109.5t-75.5 -275.5z" />
<glyph unicode="7" horiz-adv-x="899" d="M139 578q0 49 30 82.5t85 50t113.5 22.5t138.5 6q35 53 141 234l182 301q-49 0 -155.5 -6t-153.5 -6q-244 0 -244 110q0 43 35 101q231 -41 398 -41q231 0 397 53q-270 -348 -461 -754q72 -8 160 -8q80 0 133 14q-104 -139 -201 -139h-153q-176 -401 -176 -549 q0 -63 32 -86q-35 -72 -89 -106.5t-95 -34.5q-35 0 -61.5 27.5t-26.5 78.5q0 145 262 670q-148 -4 -291 -20z" />
<glyph unicode="8" horiz-adv-x="1148" d="M88 172q0 57 20.5 111.5t48 94.5t81 88t89 75.5t104.5 76t99 72.5q-76 76 -118.5 129t-81.5 138t-39 173q0 170 118.5 256.5t282.5 86.5q154 0 248 -79t94 -229q0 -135 -74.5 -241.5t-214.5 -210.5q92 -92 139.5 -144.5t90.5 -138.5t43 -174q0 -190 -160 -312t-375 -122 q-203 0 -299 107.5t-96 242.5zM246 174q0 -111 76.5 -177.5t179.5 -66.5q119 0 216 90.5t97 225.5q0 98 -52 180t-155 186q-88 -61 -136 -98t-109.5 -95.5t-89 -118.5t-27.5 -126zM483 1155q0 -166 187 -362q215 180 215 370q0 106 -53.5 166t-135.5 60q-80 0 -146.5 -58.5 t-66.5 -175.5z" />
<glyph unicode="9" horiz-adv-x="1224" d="M197 942q0 236 146 384.5t388 148.5q246 0 361.5 -160t115.5 -412q0 -139 -32.5 -288.5t-99 -291t-157 -253t-215 -180t-264.5 -68.5q-100 0 -162.5 34.5t-62.5 100.5q0 82 119 117q0 -176 110 -176q121 0 227.5 111.5t174 271t106.5 346.5q-141 -109 -336 -109 q-182 0 -300.5 110.5t-118.5 313.5zM408 936q0 -158 77.5 -239t212.5 -81q145 0 218 92.5t73 256.5q0 70 -13 136t-41 131.5t-83 106.5t-129 41q-141 0 -228 -134t-87 -310z" />
<glyph unicode=":" horiz-adv-x="514" d="M66 47q0 37 42 66.5t91 29.5q68 0 67 -63q0 -35 -36.5 -67.5t-82.5 -32.5q-33 0 -57 17t-24 50zM180 535q0 37 43 66.5t90 29.5q68 0 68 -64q0 -35 -37 -67.5t-82 -32.5q-33 0 -57.5 17.5t-24.5 50.5z" />
<glyph unicode=";" horiz-adv-x="512" d="M47 -88q0 70 43 147.5t94 77.5q27 0 48.5 -21.5t23.5 -47.5q-80 -90 -152 -248q-57 31 -57 92zM180 539q0 37 41 66.5t90 29.5q72 0 72 -64q0 -35 -38 -68.5t-83 -33.5q-82 0 -82 70z" />
<glyph unicode="&#x3c;" horiz-adv-x="671" d="M61 338q109 39 217.5 129t182.5 195q10 -8 19 -33t9 -41q0 -121 -325 -287q119 -80 336 -158q-49 -53 -86 -53q-76 0 -204.5 91t-148.5 157z" />
<glyph unicode="=" horiz-adv-x="1058" d="M127 422q37 100 383 100q176 0 379 -22q-121 -82 -250 -82h-199q-166 0 -297 -21zM131 242q41 100 383 100q176 0 379 -23q-119 -82 -250 -81h-197q-166 0 -296 -21z" />
<glyph unicode="&#x3e;" horiz-adv-x="690" d="M135 588q0 33 23 67q70 -88 190.5 -181t229.5 -134q-16 -66 -140.5 -158t-199.5 -92q-41 0 -91 53q207 74 328 158q-336 166 -340 287z" />
<glyph unicode="?" horiz-adv-x="946" d="M242 1018q0 182 126 319.5t326 137.5q141 0 224 -74t83 -209q0 -84 -32.5 -159t-83.5 -134l-105 -117q-53 -59 -105 -136t-77 -161q-12 -43 -24.5 -118.5t-30.5 -122.5q-53 27 -69.5 48t-16.5 66q0 88 40 172t97 154l115 141q57 70 97 158t40 182q0 109 -44 168.5 t-114 59.5q-111 0 -206 -123t-95 -285q0 -66 23 -139q-94 14 -131 57t-37 115zM373 47q0 39 43 68.5t90 29.5q72 0 72 -59q0 -41 -38 -73.5t-85 -32.5q-35 0 -58.5 17t-23.5 50z" />
<glyph unicode="@" horiz-adv-x="1255" d="M27 188q0 242 189.5 431.5t485.5 189.5q225 0 347 -111.5t122 -267.5t-110.5 -288t-259.5 -132q-154 0 -154 152q-152 -178 -262 -178q-57 0 -97 38.5t-40 108.5q0 96 68.5 214t181 204t221.5 86q74 0 121 -38t47 -99q0 -70 -82 -80q51 -18 51 -49q0 -20 -47 -102.5 t-47 -121.5q0 -51 61 -51q94 0 174 101.5t80 220.5q0 123 -94 215t-278 92q-250 0 -413 -167t-163 -374q0 -147 94 -251.5t293 -104.5q248 0 447 180l28 -37q-199 -217 -495 -217q-229 0 -349 126t-120 310zM383 125q0 -53 31 -53q61 0 215.5 161.5t154.5 243.5 q0 29 -2 46.5t-17 32.5t-44 15q-111 0 -224.5 -164.5t-113.5 -281.5z" />
<glyph unicode="A" d="M0 -51q0 152 301 614q-123 8 -301 8q49 133 238 134q41 0 151 -13q229 332 428 559.5t264 227.5q53 0 140 -80q-68 -51 -194 -490.5t-126 -687.5q0 -162 72 -162q111 0 272 306l37 -39q-66 -174 -168 -279.5t-213 -105.5q-180 0 -180 317q0 100 27 254q-104 16 -293 39 q-190 -338 -361 -729q-94 49 -94 127zM520 668q47 -10 136 -31t112 -25q74 352 217 686q-182 -143 -465 -630z" />
<glyph unicode="B" horiz-adv-x="1331" d="M84 -2q0 20 22 20q6 0 28 -5t67 -9t106 -4q352 0 591 137t239 318q0 244 -527 243h-4q-27 0 -78 -1t-73 -1q-33 -111 -91.5 -331t-87.5 -316q-61 0 -106 33t-45 80q0 37 20 94l9 25q4 10 41 125l73 221l88 250q51 141 106.5 275t106.5 232q-72 -16 -131 -42.5t-91 -44 t-44 -17.5q-20 0 -51 29.5t-31 50.5q94 39 152.5 58.5t158 38t205.5 18.5q68 0 129.5 -6.5t135 -28t126 -56t88 -97t35.5 -146.5q0 -285 -428 -387q231 -31 336 -125t105 -205q0 -141 -97.5 -261t-243 -191.5t-300 -110.5t-285.5 -39q-252 0 -254 176zM475 774 q123 4 227.5 26.5t196.5 65.5t144.5 117t52.5 174q0 246 -385 246q-115 -221 -236 -629z" />
<glyph unicode="C" horiz-adv-x="1167" d="M66 328q0 264 129 532t332.5 440.5t408.5 172.5q213 0 213 -187q0 -133 -82 -288.5t-170 -155.5q-51 0 -84 63q78 86 150.5 205t72.5 193q0 80 -92 79q-143 0 -305 -174t-268.5 -428t-106.5 -471q0 -164 74 -276.5t223 -112.5q160 0 320.5 129t246.5 309l54 -34 q-117 -221 -290 -361.5t-380 -140.5q-219 0 -332.5 148.5t-113.5 357.5z" />
<glyph unicode="D" horiz-adv-x="1406" d="M143 -76q16 131 153.5 576.5t197.5 599.5q14 37 31.5 73.5t58.5 80.5t84 44q35 0 77 -28q-123 -281 -246.5 -670t-189.5 -690q35 -12 103 -12q160 0 312.5 100t260 251.5t173 332t65.5 340.5q0 238 -119 353.5t-318 115.5q-201 0 -334 -105.5t-133 -263.5q0 -55 19 -98 q-164 0 -164 131q0 152 203 286t477 134q283 0 417 -158t134 -416q0 -213 -88 -414.5t-230.5 -346t-327 -231.5t-368.5 -87q-170 0 -248 102z" />
<glyph unicode="E" horiz-adv-x="1091" d="M-8 207q0 184 150.5 341t371.5 187q-147 129 -147 309q0 170 125.5 299.5t318.5 129.5q125 0 192.5 -60.5t67.5 -175.5q0 -117 -58.5 -216t-117.5 -99q-51 0 -98 84q180 147 180 274q0 59 -40 92t-108 33q-131 0 -205.5 -113.5t-74.5 -265.5q0 -215 151 -332 q-213 -33 -348 -181t-135 -310q0 -111 65.5 -200t200.5 -89q162 0 321 131t247 313l55 -34q-121 -227 -295 -364.5t-383 -137.5q-193 0 -314.5 110.5t-121.5 274.5z" />
<glyph unicode="F" horiz-adv-x="1069" d="M150 610q14 162 301 170q125 344 223 545q-33 4 -74 4q-178 0 -245.5 -54t-67.5 -169q0 -84 41 -184q-178 29 -178 178q0 158 169.5 261t423.5 103q76 0 218.5 -14t201.5 -14q94 0 207 30q-94 -104 -156.5 -143t-126.5 -39q-33 0 -134 14.5t-160 18.5q-55 -131 -185 -539 q49 -4 176 -17t207 -16q-47 -63 -113.5 -78.5t-308.5 -19.5l-84 -289q-100 -348 -100 -536q-102 6 -139 48t-37 118q0 203 190 649q-198 -19 -249 -27z" />
<glyph unicode="G" horiz-adv-x="1198" d="M66 336q0 193 77.5 398.5t198.5 367.5t278.5 266.5t309.5 104.5q125 0 184.5 -69t59.5 -173q0 -113 -57.5 -211t-135.5 -98q-51 0 -86 67q49 35 106.5 131.5t57.5 165.5q0 96 -111 96q-150 0 -312.5 -176t-268 -428t-105.5 -465q0 -180 79 -286.5t196 -106.5 q158 0 273.5 184.5t133.5 399.5q-100 20 -219 20q-37 0 -135 -4q35 139 164 139q70 0 205 -45t171 -53q-90 -279 -113.5 -372t-23.5 -187q0 -31 3 -94.5t3 -97.5q-139 16 -139 172q0 27 2 41q-166 -201 -375 -201q-180 0 -300.5 138t-120.5 376z" />
<glyph unicode="H" horiz-adv-x="1357" d="M147 -178q45 291 213 805q-113 -12 -133 -13q0 115 179 152l169 496q25 74 25 98q0 29 -27 29q-78 0 -156.5 -127t-78.5 -228q0 -33 20 -92q-162 0 -161 133q0 135 148.5 267.5t281.5 132.5q115 0 114 -111q0 -37 -16 -90l-150 -492q33 2 103 2q184 0 358 -16 q123 414 201 594q49 115 147 115q-109 -297 -215 -719q16 0 81 -3t98 -3q-94 -94 -203 -95q-119 -498 -119 -727q0 -53 10 -108q-104 10 -142 50t-38 140q0 176 148 643q-334 -2 -474 -14q-2 -6 -14 -48t-65 -208l-132 -424q-20 -68 -72.5 -103.5t-99.5 -35.5z" />
<glyph unicode="I" horiz-adv-x="1030" d="M-37 -180q6 63 34 103t81 58.5t105.5 24.5t131.5 6q84 180 205 709.5t148 607.5q-254 -4 -486 -49q20 102 128 147.5t327 45.5q246 0 594 -46q-100 -96 -238 -96q-156 0 -221 -2l-12 -61q-4 -25 -75 -413t-103 -519q-61 -246 -148 -328q27 -2 193 -18.5t270 -18.5 q-121 -115 -272 -114h-4q-285 0 -396.5 -6t-261.5 -31z" />
<glyph unicode="J" horiz-adv-x="901" d="M-37 100q0 135 45 244t123 109q29 0 80 -23q-78 -188 -78 -330q0 -82 34 -129t93 -47q51 0 92 45t82 156q70 199 160 579.5t135 634.5q-250 -6 -438 -47q14 96 101 137t267 41q201 0 471 -45q-51 -84 -186 -84q-25 0 -67.5 -1t-51.5 -1q27 -35 27 -79q-2 -109 -89 -503.5 t-194 -627.5q-137 -305 -356 -305q-250 0 -250 276z" />
<glyph unicode="K" horiz-adv-x="1304" d="M88 -141q43 92 88 223l162 465l252 715q25 74 24 88q0 39 -41 39q-90 0 -166.5 -126t-76.5 -227q0 -47 20 -94q-164 0 -164 133t149.5 266.5t282.5 133.5q113 0 113 -119q0 -39 -14 -82l-152 -492q25 14 142 105q371 287 573 594q41 -39 41 -111q0 -231 -756 -715 q109 -168 172.5 -257t193.5 -222t306 -268q-18 -35 -55 -60.5t-72 -25.5q-109 0 -294 242.5t-320 498.5l-187 -602q-10 -35 -33.5 -57.5t-59.5 -31.5t-62.5 -11t-65.5 -2z" />
<glyph unicode="L" horiz-adv-x="1249" d="M-131 82q0 102 168 102q100 0 258 -41q33 57 67.5 145.5t57.5 155.5l61 191q41 125 58 172q-100 33 -156.5 94.5t-56.5 128.5q0 66 48 121t124 55q-41 -53 -41 -139q0 -127 106 -188q43 131 84 226t96.5 185t124 137.5t148.5 47.5q86 0 156.5 -52.5t70.5 -169.5 q0 -76 -31.5 -154.5t-93 -152.5t-171 -121t-249.5 -47q-158 -479 -280 -667q397 -119 543 -119q88 0 180 45q-78 -215 -246 -215q-43 0 -94 10t-117 33.5t-110 41t-124.5 53.5t-111.5 48q-111 -117 -238 -117q-100 0 -165.5 62.5t-65.5 128.5zM-57 55q0 -37 41 -62.5 t96 -25.5q47 0 78.5 19.5t72.5 62.5q-145 53 -215 53q-73 0 -73 -47zM721 846q111 8 202 93t134 184.5t43 179.5q0 92 -68 92q-43 0 -84 -41t-82 -126t-71.5 -167t-73.5 -215z" />
<glyph unicode="M" horiz-adv-x="1650" d="M-10 -178q12 37 88 198l246 533l323 704q18 41 19 68q0 45 -60 45q-117 0 -181.5 -102.5t-64.5 -227.5q0 -43 9 -98q-68 0 -107 58.5t-39 127.5q0 129 136.5 238t285.5 109q121 0 180.5 -110t59.5 -398q0 -147 -19.5 -401.5t-19.5 -325.5q88 264 273.5 607t299.5 513 q33 51 55.5 70.5t57.5 19.5q29 0 90 -23q-68 -145 -168 -639.5t-100 -767.5q0 -27 1 -48t3 -34.5t8 -31.5l6 -25q2 -6 10 -28l13 -31q-129 0 -170 57.5t-41 208.5q0 205 44 434.5t130 560.5q-129 -184 -282.5 -522t-227.5 -555l-14 -4q-14 -6 -29 -6q-68 0 -89.5 78 t-21.5 248q0 104 8.5 356t8.5 371q0 20 -1 61t-1 59l-127 -299l-113 -262l-90 -217q-49 -115 -80 -184l-70 -141q-37 -72 -63.5 -111t-57 -73t-59 -47t-59.5 -13z" />
<glyph unicode="N" horiz-adv-x="1380" d="M115 -178l434 1440q14 57 14 79q0 29 -26 29q-82 0 -152 -116.5t-70 -215.5q0 -49 21 -96q-164 0 -164 133t149.5 266.5t274.5 133.5q35 0 64.5 -12.5t53 -42t42 -58.5t35 -83t26.5 -93t23.5 -112t19.5 -116t19 -124q63 -440 94 -601q25 100 74 312l81 348 q33 133 76 274.5t78 200.5q61 109 166 109q-119 -309 -260 -869.5t-141 -785.5q-80 0 -127.5 38t-69.5 138q-8 33 -211 1139q-240 -870 -325.5 -1092.5t-198.5 -222.5z" />
<glyph unicode="O" horiz-adv-x="1341" d="M66 336q0 258 128 523t338.5 439.5t430.5 174.5q84 0 139 -58q-33 4 -60 4q-172 0 -352 -172t-295.5 -430t-115.5 -493q0 -176 70.5 -290t217.5 -114q135 0 259 104.5t206 265.5t131 348t49 357q0 113 -21.5 204t-70.5 91q-66 0 -152.5 -150.5t-113.5 -281.5 q-129 27 -129 119q0 111 141.5 254t257.5 143q57 0 98.5 -43t61 -115.5t27.5 -144.5t8 -149q0 -250 -80 -464t-203 -349.5t-265 -211t-275 -75.5q-184 0 -307 140.5t-123 373.5z" />
<glyph unicode="P" horiz-adv-x="1144" d="M70 -61q0 35 26 114l160 490q51 156 141 391t189 452q-68 -14 -130.5 -41.5t-98 -46t-46.5 -18.5q-18 0 -48 29.5t-30 50.5q274 115 482 115q135 0 262 -43t218 -138.5t91 -220.5q0 -123 -72.5 -216t-172 -141t-224.5 -79t-207 -38t-143 -7h-12l-215 -770 q-63 0 -116.5 34t-53.5 83zM473 655q164 10 304.5 59.5t239.5 152t99 239.5q0 141 -108.5 217t-264.5 80q-123 -238 -270 -748z" />
<glyph unicode="Q" horiz-adv-x="1490" d="M90 412q0 256 107.5 498.5t304 403.5t428.5 161q211 0 333.5 -135.5t122.5 -372.5q0 -252 -130 -527.5t-324 -435.5q160 -80 293 -80q33 0 54 4t47 13.5t44 13.5q-59 -199 -225 -199q-88 0 -168 43t-178 121q-106 -51 -219 -51q-74 0 -126.5 21.5t-76 53t-32.5 58.5 t-9 51q0 49 41 88t127 39q53 0 115.5 -20.5t103.5 -41t119 -65.5q166 150 267 439.5t101 523.5q0 174 -68.5 274.5t-211.5 100.5q-186 0 -344 -174.5t-239 -417t-81 -477.5q0 -111 25 -205q-201 0 -201 295zM397 39q0 -41 36 -75t110 -34q80 0 182 50q-150 123 -242 122h-2 q-84 0 -84 -63z" />
<glyph unicode="R" horiz-adv-x="1261" d="M63 -61q0 23 29 112q158 479 247 720t255 620q-70 -14 -137.5 -42t-105.5 -48.5t-48 -20.5q-18 0 -50 28.5t-32 51.5q287 115 494 115q98 0 192 -22.5t179 -68t136.5 -124t51.5 -181.5q0 -111 -63.5 -194.5t-151.5 -128.5t-205 -75t-199 -38t-157 -10l71 -113 q63 -100 78 -121l72 -104q57 -84 92 -121l92 -104q59 -66 120.5 -119t135.5 -109q-8 -39 -48 -64.5t-77 -25.5q-76 0 -198.5 140.5t-225 308.5t-182.5 329l-201 -710q-63 0 -113.5 34t-50.5 85zM475 694q164 12 300 57.5t232.5 141.5t96.5 227q0 145 -104.5 212t-262.5 71 q-115 -230 -262 -709z" />
<glyph unicode="S" horiz-adv-x="1161" d="M8 197q0 152 94.5 218t221.5 66q-133 -139 -134 -284q0 -111 85 -189t237 -78q150 0 264.5 74t114.5 203q0 92 -68.5 165.5t-165.5 125.5l-194 106q-96 53 -166 136t-70 188q0 117 71 240.5t213 215t312 91.5q256 0 256 -215q0 -104 -50 -232.5t-114 -226.5 q-90 18 -90 104q0 57 58.5 208t58.5 206q0 39 -23.5 58.5t-84.5 19.5q-180 0 -314.5 -143.5t-134.5 -278.5q0 -80 67.5 -144.5t164 -112.5t191.5 -103.5t162.5 -144.5t67.5 -206q0 -201 -171 -321.5t-390 -120.5q-195 0 -332 98.5t-137 276.5z" />
<glyph unicode="T" horiz-adv-x="1105" d="M156 1260q8 82 82.5 131t185.5 66.5t274 17.5q166 0 412 -25q215 -20 315 -20q-57 -53 -160.5 -82t-183.5 -34t-200 -5q-168 -414 -332 -1016q-33 -125 -45 -174t-22.5 -113.5t-10.5 -124.5q0 -29 6 -59q-197 0 -201 158q0 82 72 301q45 135 105.5 293.5t101.5 256.5 l111 265l90 213q-340 -4 -600 -49z" />
<glyph unicode="U" horiz-adv-x="1536" d="M68 1098q0 133 122.5 254t290.5 121q238 0 238 -265q0 -154 -123 -549q-117 -371 -117 -505q0 -223 170 -224q104 0 196.5 93.5t143.5 207t80 234.5l55 219l56 217q39 145 65 225l62 170q35 92 66.5 134.5t60.5 42.5q45 0 131 -80q-39 -29 -129 -262.5t-170 -542.5 t-80 -498q0 -125 42 -167t150 -42q-23 -37 -75 -60.5t-99 -23.5q-76 0 -130 66.5t-54 163.5q0 16 4 106q-170 -313 -436 -313q-137 0 -214 82t-77 229.5t123 526t123 546.5q0 184 -111 185q-96 0 -152.5 -111t-56.5 -207q0 -63 27 -131q-182 0 -182 158z" />
<glyph unicode="V" horiz-adv-x="1370" d="M70 1106q0 131 118.5 250t278.5 119q137 0 210 -100.5t73 -278.5q0 -160 -63.5 -386.5t-126 -427t-62.5 -298.5q0 -37 10 -53.5t39 -16.5q84 0 209 123t236.5 298t190.5 384t79 366q0 199 -138 244q27 57 68 87t78 30q59 0 106 -74t47 -192q0 -217 -152.5 -541 t-374.5 -570.5t-394 -246.5q-72 0 -134.5 41t-62.5 141q0 80 61.5 267.5t123 427t61.5 446.5q0 119 -26.5 181.5t-98.5 62.5q-96 0 -146.5 -100.5t-50.5 -213.5q0 -74 31 -133q-96 0 -143 45t-47 119z" />
<glyph unicode="W" horiz-adv-x="1951" d="M70 1106q0 131 118.5 250t276.5 119q137 0 211 -102.5t74 -291.5q0 -205 -134 -626q-8 -29 -34.5 -104t-41 -123t-28.5 -117.5t-14 -126.5q0 -39 9 -54.5t36 -15.5q102 0 239.5 172t237.5 386t121 355q72 0 118 -41t46 -84q0 -39 -76 -215q-150 -348 -150 -495 q0 -43 11.5 -60.5t42.5 -17.5q84 0 207.5 125t234.5 302t190.5 385t79.5 359q0 180 -139 228q70 115 152 114h2q55 0 101 -65.5t46 -183.5q0 -160 -93 -395.5t-228.5 -446.5t-306.5 -362.5t-308 -151.5q-80 0 -132 48t-52 128q0 43 20 104q-223 -281 -401 -280h-2 q-27 0 -54.5 6t-63.5 22.5t-58.5 56.5t-22.5 97q0 84 90 377q8 27 32 100.5t34 106.5l26 98q18 66 27 109l18 102q10 59 14.5 118.5t4.5 119.5q0 131 -27.5 194.5t-97.5 63.5q-92 0 -144.5 -92.5t-52.5 -208.5q0 -92 31 -150q-96 0 -143 45t-47 119z" />
<glyph unicode="X" horiz-adv-x="1445" d="M92 -229q8 86 29.5 127t77.5 96q236 246 471 532q-18 160 -27.5 326t-12.5 253t-12.5 162.5t-33 104.5t-70.5 29q-92 0 -145.5 -99.5t-53.5 -211.5q0 -72 27 -132q-182 0 -182 156q0 133 123 250t276 117q68 0 119 -27t80.5 -77t48 -104t27 -131t10.5 -134.5t3 -135 t3 -114.5q276 373 455 733q18 -12 37.5 -46t19.5 -63q0 -80 -142.5 -294t-365.5 -486q35 -662 197 -661q61 0 145 105.5t215 326.5l45 -37q-137 -270 -235.5 -385t-221.5 -115q-84 0 -144 49t-94 139.5t-51.5 173.5t-27.5 193q-174 -205 -342 -381t-248 -239z" />
<glyph unicode="Y" horiz-adv-x="1445" d="M66 1098q0 133 121.5 255t291.5 122q117 0 178.5 -63.5t61.5 -162.5q0 -72 -57 -276q-74 -264 -74 -373q0 -193 143 -192h2q131 0 244 140t184 351l41 135l49 158q20 66 48 136.5t59 108.5t61 38q61 0 140 -78q-106 -164 -159.5 -325t-178.5 -677q-31 -127 -59.5 -219 t-82 -204.5t-116 -184.5t-160.5 -121t-217 -49q-131 0 -213 53.5t-82 149.5q0 66 41 116t114 66q-23 -100 -22 -139q0 -174 186 -174q115 0 198 67.5t128 183t71.5 224t48 241t38.5 183.5q-180 -291 -428 -291q-129 0 -190.5 71.5t-61.5 190.5q0 102 65.5 348t65.5 334 q0 147 -111 148q-100 0 -155.5 -105.5t-55.5 -228.5q0 -49 25 -115q-182 0 -182 158z" />
<glyph unicode="Z" horiz-adv-x="1392" d="M-16 68q0 51 41 83.5t133 32.5q98 0 288 -51q174 174 385 510q-129 -6 -337 -35q8 174 323 174q33 0 94 -4q158 268 230 451q-70 20 -164 55q-287 104 -414 105q-225 0 -225 -275q8 -70 18 -88q-152 27 -151 162q0 139 107.5 213t312.5 74q160 0 399.5 -64.5t341.5 -64.5 q68 0 102 8q-72 -72 -129 -101q-98 -229 -254 -489q205 -16 234 -16q-49 -66 -100.5 -81.5t-202.5 -19.5q-221 -348 -432 -551q346 -104 489 -104q92 0 184 45q-45 -119 -103 -167t-150 -48q-49 0 -102.5 10t-121 34.5t-102.5 39t-116 51.5t-93 43q-154 -111 -272 -111 q-94 0 -153.5 56.5t-59.5 122.5zM51 55q0 -35 38 -66.5t91 -31.5q51 0 170 90q-158 61 -217 62q-82 -1 -82 -54z" />
<glyph unicode="[" horiz-adv-x="897" d="M98 -133q14 25 27.5 80t58.5 297l140 772q41 238 117.5 332t162.5 94q16 0 69.5 -3t86.5 -3q139 0 227 49q-4 -125 -64.5 -163t-170.5 -38q-53 0 -222 33q-66 -193 -160 -737.5t-114 -616.5q227 2 316.5 9.5t185.5 33.5q0 -96 -66.5 -140t-214.5 -44q-166 0 -379 45z" />
<glyph unicode="\" horiz-adv-x="1236" d="M354 1483q53 0 102.5 -34t65.5 -75q59 -154 160 -565l188 -756q86 -344 129 -395q-61 10 -108 47t-89 118t-74 170t-74 255t-79 321l-98 418z" />
<glyph unicode="]" horiz-adv-x="935" d="M29 -180q12 176 241 176q41 0 132.5 -7t119.5 -9q68 193 175.5 772t113.5 606q-379 0 -555 -47q0 98 65.5 133t202.5 35q174 0 383 -43q-10 -119 -69.5 -517.5t-106.5 -639.5l-18 -95q-6 -37 -31 -106.5t-51.5 -110.5t-73.5 -74.5t-104 -33.5q-299 0 -424 -39z" />
<glyph unicode="^" horiz-adv-x="430" d="M2 950q0 55 91 115.5t142.5 60.5t123 -77.5t71.5 -139.5q0 -53 -51 -78q-47 80 -146 168q-113 -37 -204 -98q-27 16 -27 49z" />
<glyph unicode="_" horiz-adv-x="1816" d="M-4 -150q16 113 177 153t474 40q215 0 514 -18.5t387 -20.5q-195 -127 -348 -127q-162 0 -406.5 10.5t-287.5 10.5q-188 0 -280.5 -9.5t-229.5 -38.5z" />
<glyph unicode="`" horiz-adv-x="282" d="M-8 1063q2 39 21.5 59.5t43.5 20.5q57 0 141.5 -94.5t84.5 -137.5q0 -18 -14.5 -40.5t-37.5 -32.5q-100 119 -239 225z" />
<glyph unicode="a" horiz-adv-x="909" d="M-53 84q0 119 84 264.5t222 249.5t273 104q90 0 150.5 -46t60.5 -117q0 -94 -116 -99q74 -23 73 -59q0 -25 -58 -124t-58 -148q0 -74 61 -74q57 0 146 80t173 239l39 -39q-76 -170 -188.5 -273t-226.5 -103q-82 0 -126 54t-44 124q-92 -111 -158 -162t-139 -51 q-72 0 -120 47t-48 133zM111 74q0 -66 47 -66q27 0 56.5 15.5t64.5 46.5l63 61q31 31 70 80l61 78l59 80l50 67q6 10 16 10h4l4 -2q10 33 10 76q0 106 -86 107q-135 0 -277 -200.5t-142 -352.5z" />
<glyph unicode="b" horiz-adv-x="837" d="M-23 123q0 193 123 517.5t281 573t248 248.5q39 0 60.5 -43t23.5 -98q0 -98 -64.5 -252t-177.5 -304.5t-233 -219.5q-29 -53 -61 -175t-32 -235q0 -199 107 -198q53 0 114.5 48t100.5 119q-74 41 -114 114t-40 157q0 98 53.5 160.5t133.5 62.5q70 0 110.5 -52t40.5 -153 q0 -127 -61 -258q6 0 17 -1t20 -1q154 0 264 227l31 -43q-55 -127 -130 -187t-192 -60q-29 0 -43 2q-139 -221 -342 -222q-115 0 -176.5 72t-61.5 201zM276 674q123 113 230.5 313.5t109.5 282.5q-45 -16 -161 -207.5t-179 -388.5zM414 365q0 -131 88 -193q37 82 37 174 q0 143 -60 143q-27 0 -46 -36.5t-19 -87.5z" />
<glyph unicode="c" horiz-adv-x="681" d="M-12 156q0 201 143 368.5t311 167.5q82 0 122 -41t40 -102.5t-29.5 -113.5t-72.5 -52q-39 0 -64 39q66 45 66 153q0 35 -39 35q-100 0 -210 -163.5t-110 -303.5q0 -154 144 -153h2q121 0 247 101.5t191 262.5l41 -37q-74 -186 -227.5 -309t-311.5 -123q-111 0 -177 69 t-66 202z" />
<glyph unicode="d" horiz-adv-x="1005" d="M-33 123q0 115 84 261t223.5 257t274.5 111q100 0 100 -66q0 -33 -24 -47q-16 23 -72 23q-104 0 -203.5 -96.5t-153 -214.5t-53.5 -199q0 -86 66 -86q88 0 215 149.5t221 392.5l80 203l80 193q49 119 84 187.5t77 142t76.5 107.5t65.5 34q23 0 40 -17.5t17 -44.5 q0 -43 -73 -196l-158 -328q-86 -172 -160 -385t-74 -363q0 -49 9.5 -66.5t31.5 -17.5q70 0 160 82t158 221l39 -32q-68 -168 -186.5 -274.5t-235.5 -106.5q-150 0 -150 178q0 47 17 133q-100 -145 -207 -232t-195 -87q-68 0 -121 47t-53 137z" />
<glyph unicode="e" horiz-adv-x="698" d="M-35 158q0 186 173 383.5t358 197.5q150 0 149 -137q0 -147 -159.5 -262t-356.5 -135q-4 -20 -4 -47q0 -20 3 -39t16.5 -50.5t49 -51t89.5 -19.5q125 0 255 101.5t210 252.5l40 -33q-82 -184 -234.5 -296.5t-315.5 -112.5q-129 0 -201 69.5t-72 178.5zM152 281 q119 14 251 118.5t132 212.5q0 39 -35 39q-90 0 -196.5 -118.5t-151.5 -251.5z" />
<glyph unicode="f" horiz-adv-x="675" d="M-135 -377q0 156 89 463t217 616.5t292 541t295 231.5q86 0 86 -105q0 -170 -171 -395t-388 -369l-33 -82q43 -18 51 -71q14 -84 23.5 -125t30 -90.5t51 -68.5t75.5 -19q68 0 122 49t118 153l45 -33q-61 -125 -142 -188t-153 -63q-70 0 -145 55q-2 -166 -49.5 -328 t-124 -265t-156.5 -103q-49 0 -91 42.5t-42 153.5zM23 -356q0 -90 32 -90q55 0 122 206.5t67 362.5q0 102 -60 209q-161 -475 -161 -688zM344 750q174 162 283.5 321.5t109.5 220.5q0 16 -16 17q-72 0 -172.5 -154.5t-204.5 -404.5z" />
<glyph unicode="g" horiz-adv-x="825" d="M-37 -442q0 49 28.5 97t61.5 80t101.5 72.5t103.5 57.5l117 57q51 129 82 256q-166 -209 -312 -209q-82 0 -130 57.5t-48 151.5q0 205 188.5 369t379.5 164q63 0 97 -22.5t34 -55.5q0 -20 -12.5 -36.5t-20.5 -18.5q-37 37 -88 36h-4q-152 0 -279 -154.5t-127 -289.5 q0 -84 64 -84q55 0 136 71.5t161 184.5q23 115 53.5 165t87.5 50q27 0 59 -8q0 -53 -45 -213t-108 -332q102 43 197.5 134t136.5 210l36 -37q-45 -129 -160.5 -233.5t-236.5 -159.5q-203 -492 -414 -491q-57 0 -98 34t-41 97zM55 -422q0 -57 39 -57q41 0 106.5 75.5 t135.5 229.5q-133 -66 -207 -124t-74 -124z" />
<glyph unicode="h" horiz-adv-x="1011" d="M10 154q0 184 114 499.5t265.5 562t245.5 246.5q41 0 64.5 -45t23.5 -100q0 -152 -150.5 -410t-328.5 -362q-70 -184 -70 -348q0 -8 1 -22.5t1 -20.5q4 6 25.5 63t52.5 120.5t76 132.5t112.5 113t145.5 44q94 0 137 -60.5t43 -142.5q0 -72 -43 -178.5t-43 -147.5 q0 -66 53 -65h2q68 0 167.5 98t162.5 231l33 -34q-76 -168 -183.5 -272.5t-230.5 -104.5q-76 0 -118 40t-42 103q0 41 30 147.5t30 149.5q0 86 -74 86q-70 0 -130 -87t-96 -190.5t-87.5 -190.5t-104.5 -87q-43 0 -63.5 66t-20.5 166zM287 676q123 113 230.5 313.5 t107.5 280.5q-43 -16 -156.5 -203.5t-181.5 -390.5z" />
<glyph unicode="i" horiz-adv-x="499" d="M-16 121q0 82 43 216t116.5 246.5t145.5 112.5q27 0 44 -15t17 -44q0 -27 -52 -112t-105.5 -192.5t-53.5 -185.5q0 -63 22.5 -85.5t69.5 -22.5q162 0 322 313l31 -33q-72 -180 -182.5 -280t-237.5 -100q-86 0 -133 51t-47 131zM303 942q0 47 52.5 83t111.5 36 q88 0 88 -76q0 -43 -47 -83t-102 -40q-43 0 -73 20.5t-30 59.5z" />
<glyph unicode="j" horiz-adv-x="464" d="M-403 -453q0 100 114.5 208t288.5 177q74 182 117 416l-35 -55q-25 -39 -37 -62l-35 56q35 63 81 184t82 183.5t81 62.5q27 0 45 -21.5t18 -54.5q0 -55 -42 -247.5t-105 -381.5q74 41 118 72t107.5 97.5t116.5 158.5l37 -25q-37 -76 -78 -133t-89 -99t-79 -63.5 t-89 -54.5t-77 -45q-80 -213 -185.5 -353t-225.5 -140q-59 0 -94 32.5t-35 87.5zM-322 -440q0 -35 25 -35q41 0 110.5 80t139.5 221q-133 -68 -204 -138.5t-71 -127.5zM182 946q0 49 54.5 86t113.5 37q84 0 84 -72q0 -51 -45 -90t-104 -39q-41 0 -72 20.5t-31 57.5z" />
<glyph unicode="k" horiz-adv-x="946" d="M4 90q0 178 77 425t179 451.5t211 350t168 145.5q35 0 58.5 -43t23.5 -106q0 -145 -121 -331.5t-303 -293.5q-109 -256 -127 -493q221 508 455 507q82 0 143 -58t61 -142q0 -76 -57 -134.5t-120.5 -82t-116.5 -25.5q53 -240 161 -240q74 0 156 97.5t149 247.5l29 -35 q-57 -166 -163.5 -287t-217.5 -121q-80 0 -138 70.5t-81.5 154.5t-23.5 156q264 59 264 182q0 37 -23.5 59.5t-66.5 22.5q-197 0 -394 -526q-23 -61 -43 -82.5t-59 -21.5q-80 -1 -80 153zM356 827q100 88 183.5 212t85.5 231q-33 -14 -113 -143.5t-156 -299.5z" />
<glyph unicode="l" horiz-adv-x="501" d="M4 156q0 188 130 510.5t288 565.5t233 243q35 0 59.5 -54.5t26.5 -109.5q0 -94 -70.5 -267.5t-203.5 -368t-279 -308.5q-23 -121 -22 -187v-6q0 -141 88 -141q72 0 152.5 95t144.5 230l49 -26q-90 -186 -198.5 -289.5t-225.5 -103.5q-172 0 -172 217zM225 494 q164 178 293 431t129 363q-27 0 -104.5 -118.5t-170 -310t-147.5 -365.5z" />
<glyph unicode="m" horiz-adv-x="1351" d="M-72 0q123 494 131 524q6 23 44 40.5t69 17.5t50.5 -18.5t19.5 -49.5q0 -33 -29 -147q229 313 399 313q129 0 129 -172q0 -59 -34 -164q143 211 297 211q74 0 107.5 -44t33.5 -110q0 -57 -35 -168.5t-35 -142.5q0 -55 51 -55q129 0 277 319l35 -43q-59 -154 -152.5 -264 t-214.5 -110q-76 0 -117 45t-41 114q0 47 29 141.5t29 129.5q0 61 -47 61q-45 0 -104.5 -65.5t-160.5 -215.5q-27 -37 -64.5 -107.5t-47.5 -86.5q-37 0 -80 14.5t-43 38.5q0 14 67.5 195.5t67.5 255.5q0 61 -43 61q-84 0 -230.5 -185.5t-219.5 -387.5q-37 0 -87.5 20.5 t-50.5 34.5z" />
<glyph unicode="n" horiz-adv-x="968" d="M-78 29q0 2 37 92t69.5 202.5t32.5 190.5q45 49 107 49q72 0 72 -61q0 -55 -35 -183q209 279 387 279q82 0 127 -56.5t45 -133.5q0 -68 -40 -167.5t-40 -140.5q0 -59 49 -59q68 0 146.5 93t142.5 220l35 -28q-162 -367 -367 -367q-78 0 -121 39t-43 102q0 41 29 133.5 t29 137.5q0 80 -72 80q-57 0 -121.5 -46.5t-133.5 -136.5t-105 -145l-97 -154q-88 1 -133 60z" />
<glyph unicode="o" horiz-adv-x="761" d="M-25 127q0 135 78 264t168 129q25 0 64 -16q12 94 66.5 155.5t152.5 61.5q82 0 121 -46t39 -120q0 -141 -136 -348q25 -12 58 -12q57 0 122.5 37.5t100.5 115.5l37 -26q-43 -98 -116 -149.5t-150 -51.5q-47 0 -103 18q-170 -205 -342 -205q-86 0 -123 55.5t-37 137.5z M139 133q0 -94 70 -94q74 0 197 145q-117 102 -123 301q-39 -20 -91.5 -142t-52.5 -210zM399 451q0 -47 16.5 -107.5t43.5 -93.5q119 170 119 305q0 90 -58 90q-43 0 -82 -57t-39 -137z" />
<glyph unicode="p" horiz-adv-x="845" d="M-197 -522q127 369 170 561t105 678q2 20 5 27.5t13 13.5t31 6q59 0 90 -32t31 -77q0 -49 -29 -192q152 233 334 233q100 0 165.5 -68.5t65.5 -177t-60 -226.5t-179 -204t-258 -86q-63 0 -103.5 16.5t-40.5 37t50 20.5q182 4 306 136t124 282q0 66 -29 109t-86 43 q-94 0 -190.5 -104.5t-143.5 -211.5q-29 -100 -63 -239l-56 -234q-23 -92 -50.5 -182t-57 -135t-62.5 -45q-25 0 -52.5 18.5t-29.5 32.5z" />
<glyph unicode="q" horiz-adv-x="854" d="M-29 115q0 121 86 265t228.5 247.5t281.5 103.5q78 0 131.5 -32.5t53.5 -82.5q0 -55 -43 -77q41 -8 41 -54q0 -37 -74 -164.5t-105 -261.5q195 25 334 287l37 -33q-137 -276 -371 -315q35 -100 35 -215q0 -154 -45 -255t-119 -101q-88 0 -88 161q0 98 26 263t66 307 q-186 -231 -305 -232q-61 0 -115.5 48.5t-54.5 140.5zM141 141q0 -39 17.5 -64.5t50.5 -25.5q37 0 83 35t102.5 108.5t92.5 127.5l101 149q49 76 80 76q0 45 -31 71.5t-82 26.5q-82 0 -162 -57.5t-133 -139t-86 -166t-33 -141.5zM477 -397q0 -43 8 -43q33 0 33 235 q0 57 -6 96q-35 -167 -35 -288z" />
<glyph unicode="r" horiz-adv-x="743" d="M0 266q94 168 166 371q-20 20 -21 55q0 53 33 100.5t64 47.5q20 0 33.5 -24.5t13.5 -41.5q0 -8 -11.5 -40t-11.5 -36q2 -18 37 -43.5t76 -50t74.5 -73t33.5 -107.5q0 -66 -53 -180.5t-53 -147.5q0 -47 51 -47q90 0 200.5 101.5t155.5 199.5l50 -37 q-63 -143 -195.5 -254.5t-263.5 -111.5q-76 0 -123 40t-47 107q0 59 58.5 188.5t58.5 176.5q0 78 -103 131q-80 -197 -192 -383z" />
<glyph unicode="s" horiz-adv-x="718" d="M-41 176q0 72 25.5 109t65.5 53t44 20q131 135 199 281v20q0 150 92 150q45 0 49 -41q0 -6 -5 -29.5t-5 -44.5q0 -55 59.5 -222t59.5 -265q0 -35 -8 -84q139 35 241 231l25 -18q-84 -244 -285 -275q-33 -82 -106.5 -123.5t-169.5 -41.5q-143 0 -212 82.5t-69 197.5z M72 172q0 -74 41 -130t112 -56q90 0 131 80q-80 16 -147.5 62t-108.5 99q-28 -6 -28 -55zM131 301q35 -59 98.5 -107.5t143.5 -66.5q6 18 6 63q0 43 -8.5 95.5t-14.5 82t-24.5 100.5t-22.5 89q-100 -174 -178 -256z" />
<glyph unicode="t" horiz-adv-x="589" d="M-14 121q0 160 112 467q-53 10 -71 18v64q49 -6 98 -11q92 231 197.5 397.5t171.5 166.5q23 0 40 -16.5t17 -43.5q0 -37 -39 -109.5t-110.5 -193.5t-114.5 -207q236 0 375 15v-68q-244 -25 -412 -25q-106 -252 -107 -411q0 -84 27 -119t84 -35q102 0 209.5 93.5 t187.5 252.5l29 -20q-84 -190 -217 -310t-277 -120q-94 0 -147 54.5t-53 160.5z" />
<glyph unicode="u" horiz-adv-x="903" d="M-2 152q0 117 67.5 287.5t118.5 170.5q43 0 97 -53q-43 -63 -89.5 -182t-46.5 -205q0 -123 62 -123q53 0 131 101.5t132 206t99 204.5q123 -20 123 -70q0 -4 -32.5 -76.5t-64.5 -166.5t-32 -152q0 -72 53 -71h2q68 0 167.5 91t170.5 236l31 -24q-70 -166 -192.5 -276.5 t-237.5 -110.5q-39 0 -66.5 15t-42 35.5t-22.5 55.5t-9 59.5t-1 63.5q-45 -70 -78 -112t-84 -79.5t-98 -37.5q-68 0 -113 63.5t-45 149.5z" />
<glyph unicode="v" horiz-adv-x="839" d="M16 166q0 57 9 244q2 66 14 86t63 20q47 0 57.5 -17.5t10.5 -80.5q0 -41 -5 -131t-5 -135q0 -70 7 -96.5t30 -26.5q66 0 159 130t162 287q4 131 30.5 182.5t76.5 51.5q45 0 66.5 -28.5t21.5 -61.5q0 -18 -33 -86t-33 -168q0 -143 88 -143q82 0 160 151l23 -18 q-86 -203 -218 -203q-125 0 -174 190q-215 -393 -374 -393q-136 0 -136 246z" />
<glyph unicode="w" d="M-2 152q0 119 68.5 289.5t117.5 170.5q18 0 52 -18.5t43 -40.5q-43 -61 -88.5 -180t-45.5 -205q0 -121 64 -121q104 0 293 367q25 125 41 155.5t47 30.5q82 0 82 -59q0 -6 -10 -37q-45 -145 -46 -371q0 -104 37 -104q53 0 140.5 119.5t160.5 271.5q0 260 113 260 q45 0 67.5 -29.5t22.5 -58.5q0 -10 -27 -70q-41 -82 -40 -182q0 -152 90 -152q78 0 157 156l39 -31q-78 -186 -213 -186q-127 0 -188 170q-215 -375 -379 -375q-113 0 -121 205q0 10 2 63.5t4 75.5q-180 -328 -321 -327h-2q-68 0 -114 62.5t-46 150.5z" />
<glyph unicode="x" horiz-adv-x="880" d="M16 295q16 29 42 85t46.5 95t50 79t72.5 61.5t99 21.5q78 0 120.5 -44t67.5 -130q217 217 272 217q16 0 37 -14.5t31 -38.5q-39 0 -128 -76t-196 -193q2 -14 7.5 -60t11.5 -84t17.5 -79t31.5 -65.5t49 -24.5q63 0 150.5 102.5t134.5 202.5l33 -31q-57 -150 -165 -262 t-216 -112q-145 0 -187 252q-125 -141 -250 -299q-16 -18 -34 -19q-16 0 -26.5 13.5t-10.5 27.5q0 80 305 404q-10 61 -15.5 89.5t-15.5 61.5t-24.5 44t-36.5 11q-27 0 -51.5 -16t-49 -50t-44 -65.5t-47 -82t-46.5 -78.5z" />
<glyph unicode="y" horiz-adv-x="819" d="M-41 -440q0 49 28.5 96t61.5 80t101.5 72.5t105.5 56.5l111 55q35 88 98 320q-158 -223 -295 -224q-68 0 -121 41t-53 129q0 111 69.5 279t118.5 168q20 0 61.5 -21.5t49.5 -46.5q-39 -53 -85 -178t-46 -197q0 -76 57 -75h2q115 0 271 247q2 4 9 46.5t15 71t37 56 t70 27.5q8 0 65 -8q-2 -51 -48 -223t-107 -336q233 96 329 346l35 -29q-78 -256 -391 -395q-207 -492 -410 -491q-57 0 -98 33.5t-41 99.5zM39 -440q0 -57 39 -58q43 0 112.5 87t137.5 241q-289 -145 -289 -270z" />
<glyph unicode="z" horiz-adv-x="677" d="M-139 -457q0 55 26.5 101.5t84 91.5t112.5 78l143 84q90 53 146 90q-6 133 -172 252q113 31 180.5 116.5t67.5 169.5q0 96 -84 97q-35 0 -71 -21.5t-64.5 -53.5t-61.5 -84t-57 -99l-56 -113l-39 33q78 213 163 325.5t216 112.5q88 0 145.5 -48t57.5 -136 q0 -94 -65.5 -180.5t-165.5 -137.5q88 -70 133 -168q166 127 227 287l27 -33q-61 -180 -234 -307q8 -37 8 -68q0 -184 -156.5 -344.5t-355.5 -160.5q-155 -1 -155 116zM-68 -440q0 -55 56 -56q92 0 224 117t157 285q-45 -29 -121 -74l-123 -70q-45 -27 -95 -63.5t-74 -70 t-24 -68.5z" />
<glyph unicode="{" horiz-adv-x="622" d="M127 -31q0 70 74.5 248t74.5 268q0 123 -106 205q98 8 145 93t56 198l18 227q8 111 57.5 189t149.5 78q127 0 127 -80q0 -29 -16 -60q-57 31 -80 31q-18 0 -33.5 -11.5t-27 -37t-19.5 -49t-15 -68.5l-10 -72q-4 -29 -10 -81q-14 -121 -23.5 -181.5t-38 -126t-73.5 -82.5 q43 -49 43 -139q0 -125 -75 -311.5t-75 -253.5q0 -53 62 -53q35 0 65 20q-6 -98 -110 -98q-84 0 -122 42t-38 105z" />
<glyph unicode="|" horiz-adv-x="602" d="M160 -270q55 145 91 524t60.5 737.5t48.5 438.5q82 -33 82 -181q-2 -219 -16 -593.5t-31 -542.5q-32 -383 -235 -383z" />
<glyph unicode="}" horiz-adv-x="616" d="M8 -72q0 27 4 43q55 -37 88 -37q51 0 76 90.5t43 249.5q14 119 24.5 184.5t43 144.5t82.5 112q-47 55 -47 139q0 96 70.5 280.5t70.5 215.5q0 43 -45 43q-31 0 -64 -23q-2 6 -2 19q0 45 35 74.5t102 29.5q127 0 127 -96q0 -45 -73.5 -222.5t-73.5 -287.5q0 -137 102 -199 q-102 -25 -151 -124t-58 -222l-16 -240q-8 -119 -55 -199.5t-148 -80.5q-135 0 -135 106z" />
<glyph unicode="~" horiz-adv-x="976" d="M121 326q88 100 176 100q43 0 190.5 -40t198.5 -40q23 0 121 16q-109 -111 -191 -110q-47 0 -190 44t-194.5 44t-110.5 -14z" />
<glyph unicode="&#xa1;" horiz-adv-x="608" d="M-123 -449q0 82 241.5 554.5t364.5 646.5l25 -9q0 -100 -111 -387l-80 -202l-77 -193q-49 -121 -84 -188.5t-77 -141t-78 -107.5t-67 -34q-23 0 -40 18t-17 43zM430 883q0 37 38 69.5t83 32.5q82 0 82 -70q0 -37 -42 -66.5t-91 -29.5q-70 1 -70 64z" />
<glyph unicode="&#xa2;" horiz-adv-x="872" d="M123 494q0 178 129 335.5t293 204.5q33 168 57 338q4 25 11.5 41.5t36 35.5t77.5 30l-78 -430q80 0 125 -44t45 -126q0 -57 -23.5 -101.5t-68.5 -44.5q-37 0 -68 39q18 8 33 45t15 74q0 31 -20.5 51.5t-53.5 20.5q-88 -483 -117 -623q133 27 240 119l45 -49 q-147 -133 -303 -170q-68 -307 -136.5 -439.5t-207.5 -132.5q90 96 208 557q-106 4 -172.5 75t-66.5 194zM283 483q0 -129 106 -151q57 223 133 588q-102 -68 -170.5 -196t-68.5 -241z" />
<glyph unicode="&#xa3;" horiz-adv-x="1415" d="M-20 82q0 102 167 102q100 0 259 -41q57 102 90 195q-221 -27 -244 -31q8 164 293 172l18 60q-49 6 -149 6q-80 0 -138 -6q0 57 100.5 99t229.5 42l43 127q-98 33 -155.5 93.5t-57.5 127.5q0 66 47 122t123 56q-39 -51 -39 -133q0 -131 107 -194q43 133 85 230t97 185 t123 134.5t147 46.5q86 0 156 -51.5t70 -170.5q0 -74 -32 -153.5t-93.5 -153.5t-171 -121t-246.5 -47q-23 -59 -35 -104l103 -12q68 -8 123 -11.5t116 -3.5q-49 -66 -110.5 -80t-274.5 -18q-27 -66 -29 -74q23 -2 157 -15.5t218 -15.5q-49 -66 -114.5 -80t-311.5 -18 q-70 -160 -123 -235q397 -119 541 -119q90 0 182 45q-78 -215 -245 -215q-43 0 -94.5 10t-117 33.5t-109.5 41t-125 53.5t-111 48q-111 -117 -238 -117q-100 0 -165.5 62.5t-65.5 128.5zM43 63q0 -27 44 -63.5t95 -36.5q82 0 160 86q-145 53 -217 53q-82 0 -82 -39zM831 846 q111 8 202 93t134 184.5t43 179.5q0 92 -67 92q-43 0 -84 -41t-82 -126t-72 -167t-74 -215z" />
<glyph unicode="&#xa4;" horiz-adv-x="1505" d="M184 96q45 41 107.5 84t115 89t105.5 118q-20 68 -20 131q0 188 88 352q-119 119 -250 230q-41 35 -45 133q0 43 20 90q98 -88 344 -340q123 147 271 147q154 0 229 -126l51 71q35 47 52.5 67.5t50 48.5t70.5 39t87 11q14 0 64 -8q-10 -16 -29.5 -41t-52.5 -62l-64 -71 l-86 -96l-100 -111q4 -37 4 -53q0 -154 -104 -348q244 -211 245 -342q0 -27 -12 -68q-29 45 -73 88t-117.5 107.5t-116.5 105.5q-121 -141 -262 -141q-113 0 -178 75q-175 -180 -394 -180zM639 502q0 -70 42 -117t89 -47q66 0 133.5 83t109.5 199.5t42 219.5q0 68 -39 114.5 t-88 46.5q-78 0 -147.5 -91t-105.5 -204.5t-36 -203.5z" />
<glyph unicode="&#xa5;" horiz-adv-x="1777" d="M244 1098q0 133 122.5 255t290.5 122q119 0 180.5 -66t61.5 -156q0 -63 -65.5 -299.5t-65.5 -351.5q0 -195 141 -194q90 0 178.5 79.5t145.5 182t108 229.5q133 575 258 576q25 0 66 -22.5t72 -55.5q-98 -154 -161 -342.5t-119 -434t-95 -370.5q53 -2 141 -9.5t103 -7.5 q-123 -84 -271 -83l-35 -99q74 -2 248 -14l62 -4q-123 -86 -260 -86h-95q-158 -330 -473 -330q-133 0 -223 54.5t-90 150.5q0 119 158 174q-20 -78 -21 -139q0 -72 48 -116t132 -44q193 0 320 250q-158 0 -322 -25q47 123 365 131l33 97q-248 -4 -402 -27q27 76 135.5 103.5 t292.5 29.5q10 39 31 165t33 189q-190 -313 -426 -313q-127 0 -189.5 69.5t-62.5 190.5q0 106 65.5 351t65.5 331q0 156 -113 156q-98 0 -154.5 -107.5t-56.5 -220.5q0 -68 27 -127q-184 0 -184 158z" />
<glyph unicode="&#xa6;" horiz-adv-x="604" d="M162 -270q61 160 106 678q45 53 111 53q39 0 39 -62q0 -166 -11.5 -282.5t-39 -207.5t-78.5 -135t-127 -44zM281 578l16 217q10 139 15 214.5t14.5 171t17.5 155t18 96.5q82 -33 82 -148q0 -41 -6 -218t-6 -288q0 -96 -70 -143z" />
<glyph unicode="&#xa7;" horiz-adv-x="907" d="M41 68q0 98 65.5 142t153.5 44q-94 -94 -94 -188q0 -68 54 -116t151 -48q94 0 163.5 46t69.5 124q0 57 -45 106t-108 88l-127 82q-63 43 -108.5 106.5t-45.5 141.5q0 119 90 206t252 89q-86 49 -133 99t-47 126q0 123 111.5 240t277.5 117q164 0 164 -144 q0 -137 -105 -297q-66 10 -65 72q0 39 36.5 137t36.5 131q0 41 -61 41q-115 0 -200 -90t-85 -176q0 -49 41 -89t98.5 -71t115 -68.5t98.5 -105.5t41 -158q0 -133 -83 -203.5t-218 -70.5q-27 0 -35 2q63 -35 104 -63.5t80 -85t39 -121.5q0 -129 -117 -210t-262 -81 q-125 0 -214 64.5t-89 181.5zM303 645q0 -25 7 -48.5t24.5 -54t59.5 -49t102 -18.5q92 0 143 44t51 124q0 74 -45 121t-133 47q-86 0 -147.5 -45t-61.5 -121z" />
<glyph unicode="&#xa8;" horiz-adv-x="471" d="M-8 961q0 37 45 67.5t92 30.5q74 0 74 -66q0 -37 -39 -69.5t-84 -32.5q-37 0 -62.5 17.5t-25.5 52.5zM289 920q0 39 44 68.5t93 29.5q76 0 76 -68q0 -37 -40 -68.5t-87 -31.5q-35 0 -60.5 18.5t-25.5 51.5z" />
<glyph unicode="&#xa9;" horiz-adv-x="1269" d="M180 733q0 174 83 300t200 181.5t246 55.5q94 0 188 -34t174 -96.5t129 -167t49 -231.5q0 -174 -87 -300t-206.5 -181t-250.5 -55q-203 0 -361 139t-164 389zM264 741q0 -199 121 -324.5t320 -125.5q201 0 330.5 126t129.5 324q0 193 -128 318t-326 125q-197 0 -322 -123 t-125 -320zM530 614v265q0 195 181 194q92 0 141 -52t49 -103q0 -49 -45 -50q-27 0 -39 18.5t-14 42t-23.5 42t-64.5 18.5q-94 0 -94 -110v-265q0 -59 22.5 -84.5t81.5 -25.5q43 0 63.5 18.5t22.5 42t12.5 42t32.5 18.5q49 0 49 -43q0 -68 -49 -114t-133 -46 q-86 0 -139.5 47t-53.5 145z" />
<glyph unicode="&#xaa;" horiz-adv-x="839" d="M256 1047q0 131 130 279.5t271 148.5q63 0 106.5 -33t43.5 -84q0 -61 -62 -70q31 -16 33 -39q0 -18 -40 -84.5t-40 -99.5q0 -47 37 -47q39 0 97.5 56t121.5 161l21 -33q-45 -117 -125 -189.5t-156 -72.5q-92 0 -96 129q-131 -154 -225 -154q-49 0 -83 34.5t-34 97.5z M383 1044q0 -41 27 -40q86 0 282 288l15 6q10 31 10 52q0 59 -62 59q-90 0 -181 -131.5t-91 -233.5z" />
<glyph unicode="&#xab;" horiz-adv-x="980" d="M55 338q111 43 222.5 131t183.5 184q4 -4 14 -29.5t10 -35.5q0 -121 -327 -287q125 -82 336 -158q-49 -53 -84 -53q-78 0 -206.5 91t-148.5 157zM369 338q111 43 222 131t183 184q4 -4 14.5 -29.5t10.5 -35.5q0 -121 -328 -287q125 -82 336 -158q-49 -53 -84 -53 q-78 0 -206 91t-148 157z" />
<glyph unicode="&#xac;" horiz-adv-x="1384" d="M90 348q43 78 208 106.5t435 28.5q172 0 314 -6q18 59 77 115q0 -16 17 -119q143 -4 157 -8q-51 -53 -151 -74q0 -39 4 -55q0 -80 -7 -128t-39 -92t-91 -63q31 143 30 183q0 16 -1 66t-1 79q-31 -2 -88 -2q-117 -2 -276.5 -4t-217 -3t-154.5 -7.5t-216 -16.5z" />
<glyph unicode="&#xad;" horiz-adv-x="991" d="M88 291q12 43 55 70.5t100.5 39t95.5 15.5t75 4q184 0 442 -14q-20 -47 -93 -79t-157 -32q-23 0 -110.5 6t-145.5 6q-139 0 -262 -16z" />
<glyph unicode="&#xae;" horiz-adv-x="1267" d="M180 733q0 174 85 300t204 181.5t248 55.5q131 0 248.5 -56.5t200.5 -180.5t83 -292q0 -172 -88 -299t-210 -182t-251 -55t-244.5 56t-195.5 180t-80 292zM264 735q0 -193 119 -318.5t317.5 -125.5t331.5 126t133 326q0 193 -122.5 317t-321.5 124t-328 -124t-129 -325z M539 1030q0 16 12 28.5t31 12.5h133q86 0 144.5 -43t58.5 -139q0 -141 -119 -172l51 -99l49 -90q20 -37 21 -41q6 -12 6 -22q0 -14 -15.5 -27.5t-31.5 -13.5q-31 0 -62 63l-112 222h-66v-242q0 -20 -14.5 -31.5t-30.5 -11.5q-18 0 -32.5 11t-14.5 32zM635 791h86 q104 0 104 98q0 100 -106 100h-84v-198z" />
<glyph unicode="&#xb0;" horiz-adv-x="600" d="M229 928q0 76 76 149.5t178 73.5q84 0 126 -33t42 -84q0 -78 -77.5 -150.5t-182.5 -72.5q-80 0 -121 33t-41 84zM324 930q0 -53 75 -53q55 0 108.5 53t53.5 104q0 49 -78 49q-59 0 -109 -51t-50 -102z" />
<glyph unicode="&#xb1;" horiz-adv-x="993" d="M115 150q16 117 385 116q199 0 368 -18q-82 -45 -146.5 -55.5t-219.5 -14.5q-184 -3 -387 -28zM119 580q39 100 307 110v64q0 100 70 190q18 -102 28 -254q123 -2 336 -18q-121 -74 -244 -74h-92q-2 -117 -25.5 -185.5t-95.5 -93.5q23 127 23 279q-176 0 -307 -18z" />
<glyph unicode="&#xb2;" horiz-adv-x="813" d="M188 723q0 66 99 65q45 0 106 -12q98 84 178 227.5t80 262.5q0 129 -94 129q-53 0 -86 -49.5t-33 -126.5q0 -41 25 -93h-39q-96 23 -96 107q0 90 69.5 157.5t175.5 67.5q86 0 141.5 -57.5t55.5 -140.5q0 -127 -78 -266.5t-194 -237.5q139 -29 180 -29q29 0 115 51 q-23 -84 -54.5 -123t-85.5 -39q-100 0 -247 74q-70 -41 -121 -41q-41 0 -69 20.5t-28 53.5zM264 721q0 -6 17 -6q12 0 28 8q-12 2 -28.5 2t-16.5 -4z" />
<glyph unicode="&#xb3;" horiz-adv-x="684" d="M211 803q0 47 28.5 85t77.5 38q18 0 62 -15q-51 -39 -51 -94q0 -45 23.5 -80t64.5 -35q53 0 98 58.5t45 138.5q0 147 -160 186q92 39 148.5 111t56.5 133q0 41 -22.5 65.5t-51.5 24.5q-39 0 -67.5 -30.5t-28.5 -73.5q0 -20 21 -62q-10 -18 -31 -32.5t-35 -14.5 q-27 0 -43 32t-16 65q0 76 63.5 121.5t149.5 45.5q74 0 129 -38.5t55 -106.5q0 -61 -39 -126.5t-102 -98.5q123 -61 123 -191q0 -102 -86 -184t-215 -82q-96 0 -146.5 49.5t-50.5 110.5z" />
<glyph unicode="&#xb4;" horiz-adv-x="288" d="M190 907q0 41 77 138.5t134 97.5q53 0 62 -72q-174 -168 -223 -231q-23 10 -36.5 31.5t-13.5 35.5z" />
<glyph unicode="&#xb5;" horiz-adv-x="1259" d="M-59 -479q27 88 73 211l76 213q31 90 70 291.5t67 480.5q2 20 5.5 27.5t14.5 13.5t34 6q109 0 116 -107q-92 -424 -92 -534q0 -86 51 -86q37 0 79 39t85 107.5t77 129t75 142.5l55 106q121 -18 121 -67q-131 -264 -131 -408q0 -70 57 -70q70 0 171.5 91.5t172.5 238.5 l49 -33q-68 -168 -192.5 -277.5t-243.5 -109.5q-76 0 -121 45t-45 119q0 20 2 33q-125 -197 -250 -197q-49 0 -86 37q-152 -537 -208 -536q-29 0 -53.5 38t-28.5 56z" />
<glyph unicode="&#xb6;" horiz-adv-x="1404" d="M145 688q0 143 102.5 257t246 172.5t305.5 72.5q-6 135 -25 256q41 20 76 20q33 0 53.5 -25.5t28.5 -73.5t10 -84t2 -89q4 0 40 -5t48 -9q-10 195 -20 264q33 23 69 22q74 0 97 -321q78 -23 184 -70q-8 -20 -49 -48t-56 -28q-6 0 -75 33q10 -121 10 -272q0 -758 -23 -830 q-14 -49 -64 -78.5t-110 -29.5q4 12 13.5 178t17.5 429t8 480q0 33 -1 95.5t-1 91.5q-8 2 -22.5 5t-31.5 5t-26 4q16 -287 17 -631q0 -479 -23 -547q-16 -45 -81.5 -77.5t-131.5 -32.5q12 217 35 489q-55 4 -110.5 11.5t-130 22.5t-138 44t-121 67t-90.5 98t-33 134z" />
<glyph unicode="&#xb7;" horiz-adv-x="493" d="M119 311q0 33 44 67t87 34q68 0 67 -60q0 -31 -33.5 -73.5t-80.5 -42.5q-84 -1 -84 75z" />
<glyph unicode="&#xb8;" horiz-adv-x="475" d="M27 -297q0 43 65 88q27 -92 82 -92q49 0 107.5 61.5t58.5 108.5q0 33 -33 33q-27 0 -86 -38t-75.5 -38t-30 17.5t-13.5 33.5q0 6 45.5 66.5t67.5 81.5l92 71l-96 -153q68 25 111 24q49 0 79.5 -26.5t30.5 -75.5q0 -86 -83 -166t-187 -80q-57 0 -96 26.5t-39 57.5z" />
<glyph unicode="&#xb9;" horiz-adv-x="628" d="M178 721q111 0 168 6q33 78 74 302t45 241q-66 -37 -86 -37q-45 0 -45 61q74 37 248 174q20 -20 20 -47q0 -18 -82 -424l-24 -123q-20 -92 -41 -135q106 0 127 -94q-80 6 -107 6q-41 0 -95 -4t-81 -4t-60.5 20.5t-60.5 57.5z" />
<glyph unicode="&#xba;" horiz-adv-x="634" d="M260 1059q0 121 112.5 267.5t243.5 146.5q47 0 70 -27q33 -2 50.5 -22.5t17.5 -43.5q0 -18 -28 -77.5t-28 -85.5q0 -23 27 -23q16 0 41 4q10 0 14 2q0 -35 -23.5 -53.5t-56.5 -18.5q-29 0 -51 17q-47 -100 -114.5 -159.5t-143.5 -59.5q-59 0 -95 37t-36 96zM375 1073 q0 -29 14 -47t37 -18q43 0 97.5 60t86.5 138q-8 33 -8 76q0 74 12 104q-94 -14 -166.5 -124.5t-72.5 -188.5z" />
<glyph unicode="&#xbb;" horiz-adv-x="1005" d="M137 143q211 76 336 158q-328 166 -328 287q0 10 10.5 35.5t14.5 29.5q72 -96 183.5 -184t221.5 -131q-20 -66 -148 -157t-206 -91q-35 0 -84 53zM451 143q211 76 335 158q-328 166 -327 287q0 10 10 35.5t14 29.5q72 -96 183.5 -184t222.5 -131q-20 -66 -148.5 -157 t-205.5 -91q-35 0 -84 53z" />
<glyph unicode="&#xbc;" horiz-adv-x="1404" d="M106 -178q147 143 473 703t439 849q12 29 61 56.5t103 27.5q14 0 39 -4q-39 -96 -297 -578.5t-383 -676.5q-121 -186 -223.5 -281.5t-211.5 -95.5zM154 707q127 0 172 8q33 80 75.5 311t44.5 244q-61 -37 -86 -37q-45 0 -45 53q0 2 39 31l105 74q63 45 104 77 q20 -18 21 -47q0 -53 -107 -555q-20 -100 -43 -139q109 0 129 -96q-86 6 -108 6q-37 0 -92.5 -4t-88.5 -4q-59 0 -120 78zM772 248q0 57 25 78q344 289 446 458q41 -4 43 -43q0 -8 -11 -47t-33.5 -131t-43.5 -207h21q6 0 108 17q-80 -106 -145 -107q-35 -252 -35 -321 q-129 6 -129 71q0 41 43 252q-23 2 -68 2q-131 1 -221 -22zM940 362q12 0 60.5 -1t82.5 -1q23 123 37 168l-57 -51q-35 -35 -70 -65t-53 -50z" />
<glyph unicode="&#xbd;" horiz-adv-x="1521" d="M123 -178q147 145 475 705t438 847q12 33 73.5 67t115.5 34q-25 -98 -277 -578.5t-391 -697.5q-121 -186 -222 -281.5t-212 -95.5zM158 707q127 0 172 8q33 80 76 311t45 244q-61 -37 -86 -37q-45 0 -46 53q0 2 39 31l105 74q63 45 104 77q20 -18 21 -47q0 -53 -107 -555 q-20 -100 -43 -139q109 0 129 -96q-86 6 -108 6q-37 0 -92.5 -4t-87.5 -4q-60 0 -121 78zM770 51q0 66 98 66q45 0 107 -13q98 84 178 227.5t80 262.5q0 129 -94 129q-53 0 -86 -49t-33 -127q0 -39 24 -92h-38q-96 23 -97 106q0 90 70 157.5t176 67.5q86 0 141.5 -57 t55.5 -141q0 -127 -78 -266.5t-195 -237.5q139 -29 181 -29q29 0 114 51q-23 -84 -54.5 -122.5t-84.5 -38.5q-100 0 -248 73q-70 -41 -121 -41q-41 0 -68.5 20.5t-27.5 53.5zM846 49q0 -6 16 -6q12 0 29 8q-12 2 -28.5 2t-16.5 -4z" />
<glyph unicode="&#xbe;" horiz-adv-x="1501" d="M197 791q0 49 27.5 86.5t78.5 37.5q16 0 64 -12q-55 -39 -56 -102q0 -41 28 -74t67 -33q55 0 100 58.5t45 138.5q0 152 -162 188q90 39 149.5 114t59.5 134q0 43 -23.5 66.5t-54.5 23.5q-37 0 -67.5 -29.5t-30.5 -68.5q0 -27 20 -68q-8 -18 -28.5 -32.5t-36.5 -14.5 q-25 0 -41.5 31t-20.5 65q0 78 65.5 124t151.5 46q76 0 131.5 -38.5t55.5 -110.5q0 -61 -40 -128t-104 -99q61 -29 93 -83.5t32 -111.5q0 -102 -87 -186t-218 -84q-100 0 -149 49.5t-49 112.5zM205 -178q131 160 248.5 330t228.5 370l164 299q53 100 159.5 321.5 t110.5 231.5q16 37 75.5 69t115.5 32q-27 -102 -265.5 -556t-406.5 -718q-121 -190 -219 -284.5t-211 -94.5zM870 248q0 57 25 78q346 291 434 452l12 6q41 -4 41 -43q0 -14 -10 -52t-31.5 -129t-44.5 -204q27 0 129 17q-80 -106 -145 -107q-35 -252 -35 -321 q-129 6 -129 71q0 41 43 252q-187 0 -289 -20zM1038 362q10 0 57.5 -1t86.5 -1q23 123 37 168q-66 -63 -114.5 -104.5t-66.5 -61.5z" />
<glyph unicode="&#xbf;" horiz-adv-x="894" d="M-84 -291q0 74 33 136.5t84 113.5l106 100q55 49 105.5 115t74.5 139q14 45 26.5 120t29.5 122q53 -27 69.5 -48.5t16.5 -66.5q0 -78 -40 -150.5t-97 -133.5l-115 -121q-57 -61 -97 -139t-40 -160q0 -109 44 -168.5t113 -59.5q111 0 206 123t95 285q0 66 -22 139 q94 -14 131 -57t37 -115q0 -182 -126 -319t-327 -137q-141 0 -224 73.5t-83 208.5zM340 713q0 41 38 73.5t85 32.5q35 0 58.5 -17.5t23.5 -49.5q0 -39 -43 -69t-90 -30q-72 1 -72 60z" />
<glyph unicode="&#xc0;" d="M0 -51q0 152 301 614q-123 8 -301 8q49 133 238 134q41 0 151 -13q229 332 428 559.5t264 227.5q53 0 140 -80q-68 -51 -194 -490.5t-126 -687.5q0 -162 72 -162q111 0 272 306l37 -39q-66 -174 -168 -279.5t-213 -105.5q-180 0 -180 317q0 100 27 254q-104 16 -293 39 q-190 -338 -361 -729q-94 49 -94 127zM520 668q47 -10 136 -31t112 -25q74 352 217 686q-182 -143 -465 -630zM860 1858q2 39 21.5 59t44.5 20q57 0 141 -94t84 -137q0 -18 -14.5 -41t-36.5 -33q-101 120 -240 226z" />
<glyph unicode="&#xc1;" d="M0 -51q0 152 301 614q-123 8 -301 8q49 133 238 134q41 0 151 -13q229 332 428 559.5t264 227.5q53 0 140 -80q-68 -51 -194 -490.5t-126 -687.5q0 -162 72 -162q111 0 272 306l37 -39q-66 -174 -168 -279.5t-213 -105.5q-180 0 -180 317q0 100 27 254q-104 16 -293 39 q-190 -338 -361 -729q-94 49 -94 127zM520 668q47 -10 136 -31t112 -25q74 352 217 686q-182 -143 -465 -630zM1137 1702q0 41 76.5 138t134.5 97q53 0 61 -71q-174 -168 -223 -232q-23 10 -36 32t-13 36z" />
<glyph unicode="&#xc2;" d="M0 -51q0 152 301 614q-123 8 -301 8q49 133 238 134q41 0 151 -13q229 332 428 559.5t264 227.5q53 0 140 -80q-68 -51 -194 -490.5t-126 -687.5q0 -162 72 -162q111 0 272 306l37 -39q-66 -174 -168 -279.5t-213 -105.5q-180 0 -180 317q0 100 27 254q-104 16 -293 39 q-190 -338 -361 -729q-94 49 -94 127zM520 668q47 -10 136 -31t112 -25q74 352 217 686q-182 -143 -465 -630zM952 1745q0 55 92.5 115.5t145.5 60.5q51 0 123.5 -78t72.5 -139q0 -53 -51 -80q-47 80 -147 170q-94 -31 -209 -106q-27 16 -27 57z" />
<glyph unicode="&#xc3;" d="M0 -51q0 152 301 614q-123 8 -301 8q49 133 238 134q41 0 151 -13q229 332 428 559.5t264 227.5q53 0 140 -80q-68 -51 -194 -490.5t-126 -687.5q0 -162 72 -162q111 0 272 306l37 -39q-66 -174 -168 -279.5t-213 -105.5q-180 0 -180 317q0 100 27 254q-104 16 -293 39 q-190 -338 -361 -729q-94 49 -94 127zM520 668q47 -10 136 -31t112 -25q74 352 217 686q-182 -143 -465 -630zM774 1642q39 45 92.5 81t91.5 36q59 0 186.5 -41t196.5 -41q55 0 140 15q-104 -111 -189 -111q-63 0 -197 39t-194 39q-33 -1 -127 -17z" />
<glyph unicode="&#xc4;" d="M0 -51q0 152 301 614q-123 8 -301 8q49 133 238 134q41 0 151 -13q229 332 428 559.5t264 227.5q53 0 140 -80q-68 -51 -194 -490.5t-126 -687.5q0 -162 72 -162q111 0 272 306l37 -39q-66 -174 -168 -279.5t-213 -105.5q-180 0 -180 317q0 100 27 254q-104 16 -293 39 q-190 -338 -361 -729q-94 49 -94 127zM520 668q47 -10 136 -31t112 -25q74 352 217 686q-182 -143 -465 -630zM893 1755q0 37 45 67.5t92 30.5q74 0 74 -65q0 -37 -39 -69.5t-84 -32.5q-37 0 -62.5 17t-25.5 52zM1190 1714q0 39 44 68.5t93 29.5q76 0 76 -67 q0 -37 -40 -68.5t-87 -31.5q-35 0 -60.5 18t-25.5 51z" />
<glyph unicode="&#xc5;" d="M0 -51q0 152 301 614q-123 8 -301 8q49 133 238 134q41 0 151 -13q229 332 428 559.5t264 227.5q53 0 140 -80q-68 -51 -194 -490.5t-126 -687.5q0 -162 72 -162q111 0 272 306l37 -39q-66 -174 -168 -279.5t-213 -105.5q-180 0 -180 317q0 100 27 254q-104 16 -293 39 q-190 -338 -361 -729q-94 49 -94 127zM520 668q47 -10 136 -31t112 -25q74 352 217 686q-182 -143 -465 -630zM1022 1722q0 76 76 150t178 74q84 0 126 -33t42 -84q0 -78 -79 -150.5t-183 -72.5q-80 0 -120 32.5t-40 83.5zM1128 1735q2 -23 19.5 -40.5t50.5 -17.5 q51 0 96 46t45 92q0 53 -71 53q-51 0 -95.5 -44t-44.5 -89z" />
<glyph unicode="&#xc6;" horiz-adv-x="1617" d="M-2 -53q0 154 301 616q-123 8 -205 8h-96q49 133 240 134q39 0 149 -13q227 328 426 557.5t268 229.5q317 0 682 -47q-37 -100 -381 -101q-78 0 -213 4q-80 -160 -159 -469q117 -4 279.5 -26.5t166.5 -22.5q-39 -100 -381 -100q-74 0 -104 2q-72 -322 -72 -514 q0 -12 6 -68q74 -10 298 -28.5t292 -34.5q-35 -98 -379 -99q-238 0 -323 9q-76 68 -76 274q0 96 28 254q-104 16 -292 39q-190 -338 -361 -729q-94 49 -94 125zM518 668q45 -8 130 -29t118 -27q74 352 217 686q-182 -143 -465 -630z" />
<glyph unicode="&#xc7;" horiz-adv-x="1165" d="M66 328q0 264 129 532t332.5 440.5t408.5 172.5q213 0 213 -187q0 -133 -82 -288.5t-170 -155.5q-51 0 -84 63q78 86 150.5 205t72.5 193q0 80 -92 79q-143 0 -305 -174t-268.5 -428t-106.5 -471q0 -164 74 -276.5t223 -112.5q160 0 320.5 129t246.5 309l54 -34 q-88 -166 -209 -289t-266 -176l-48 -78q68 25 111 24q49 0 80 -26.5t31 -75.5q0 -86 -83 -166t-188 -80q-57 0 -96 27t-39 57q0 43 66 88q27 -92 82 -92q49 0 107 61.5t58 108.5q0 33 -32 33q-27 0 -86.5 -38t-75.5 -38t-29.5 17.5t-13.5 33.5q0 4 29.5 47t56.5 74 q-72 -14 -125 -14q-219 0 -332.5 148.5t-113.5 357.5z" />
<glyph unicode="&#xc8;" horiz-adv-x="1091" d="M-8 207q0 184 150.5 341t371.5 187q-147 129 -147 309q0 170 125.5 299.5t318.5 129.5q125 0 192.5 -60.5t67.5 -175.5q0 -117 -58.5 -216t-117.5 -99q-51 0 -98 84q180 147 180 274q0 59 -40 92t-108 33q-131 0 -205.5 -113.5t-74.5 -265.5q0 -215 151 -332 q-213 -33 -348 -181t-135 -310q0 -111 65.5 -200t200.5 -89q162 0 321 131t247 313l55 -34q-121 -227 -295 -364.5t-383 -137.5q-193 0 -314.5 110.5t-121.5 274.5zM834 1858q2 39 21 59t44 20q57 0 141 -94t84 -137q0 -18 -14 -41t-37 -33q-100 120 -239 226z" />
<glyph unicode="&#xc9;" horiz-adv-x="1091" d="M-8 207q0 184 150.5 341t371.5 187q-147 129 -147 309q0 170 125.5 299.5t318.5 129.5q125 0 192.5 -60.5t67.5 -175.5q0 -117 -58.5 -216t-117.5 -99q-51 0 -98 84q180 147 180 274q0 59 -40 92t-108 33q-131 0 -205.5 -113.5t-74.5 -265.5q0 -215 151 -332 q-213 -33 -348 -181t-135 -310q0 -111 65.5 -200t200.5 -89q162 0 321 131t247 313l55 -34q-121 -227 -295 -364.5t-383 -137.5q-193 0 -314.5 110.5t-121.5 274.5zM954 1702q0 41 77 138t134 97q53 0 62 -71q-174 -168 -223 -232q-23 10 -36.5 32t-13.5 36z" />
<glyph unicode="&#xca;" horiz-adv-x="1091" d="M-8 207q0 184 150.5 341t371.5 187q-147 129 -147 309q0 170 125.5 299.5t318.5 129.5q125 0 192.5 -60.5t67.5 -175.5q0 -117 -58.5 -216t-117.5 -99q-51 0 -98 84q180 147 180 274q0 59 -40 92t-108 33q-131 0 -205.5 -113.5t-74.5 -265.5q0 -215 151 -332 q-213 -33 -348 -181t-135 -310q0 -111 65.5 -200t200.5 -89q162 0 321 131t247 313l55 -34q-121 -227 -295 -364.5t-383 -137.5q-193 0 -314.5 110.5t-121.5 274.5zM782 1745q0 55 92.5 115.5t145.5 60.5q51 0 124 -78t73 -139q0 -53 -52 -80q-47 80 -147 170 q-94 -31 -209 -106q-27 16 -27 57z" />
<glyph unicode="&#xcb;" horiz-adv-x="1091" d="M-8 207q0 184 150.5 341t371.5 187q-147 129 -147 309q0 170 125.5 299.5t318.5 129.5q125 0 192.5 -60.5t67.5 -175.5q0 -117 -58.5 -216t-117.5 -99q-51 0 -98 84q180 147 180 274q0 59 -40 92t-108 33q-131 0 -205.5 -113.5t-74.5 -265.5q0 -215 151 -332 q-213 -33 -348 -181t-135 -310q0 -111 65.5 -200t200.5 -89q162 0 321 131t247 313l55 -34q-121 -227 -295 -364.5t-383 -137.5q-193 0 -314.5 110.5t-121.5 274.5zM731 1755q0 37 45 67.5t92 30.5q74 0 74 -65q0 -37 -39 -69.5t-84 -32.5q-37 0 -62.5 17t-25.5 52z M1028 1714q0 39 44 68.5t93 29.5q76 0 76 -67q0 -37 -40 -68.5t-87 -31.5q-35 0 -60.5 18t-25.5 51z" />
<glyph unicode="&#xcc;" horiz-adv-x="1030" d="M-37 -180q6 63 34 103t81 58.5t105.5 24.5t131.5 6q84 180 205 709.5t148 607.5q-254 -4 -486 -49q20 102 128 147.5t327 45.5q246 0 594 -46q-100 -96 -238 -96q-156 0 -221 -2l-12 -61q-4 -25 -75 -413t-103 -519q-61 -246 -148 -328q27 -2 193 -18.5t270 -18.5 q-121 -115 -276 -114q-285 0 -396.5 -6t-261.5 -31zM588 1858q2 39 21.5 59t43.5 20q57 0 141.5 -94t84.5 -137q0 -18 -14.5 -41t-37.5 -33q-100 120 -239 226z" />
<glyph unicode="&#xcd;" horiz-adv-x="1030" d="M-37 -180q6 63 34 103t81 58.5t105.5 24.5t131.5 6q84 180 205 709.5t148 607.5q-254 -4 -486 -49q20 102 128 147.5t327 45.5q246 0 594 -46q-100 -96 -238 -96q-156 0 -221 -2l-12 -61q-4 -25 -75 -413t-103 -519q-61 -246 -148 -328q27 -2 193 -18.5t270 -18.5 q-121 -115 -276 -114q-285 0 -396.5 -6t-261.5 -31zM760 1702q0 41 76.5 138t134.5 97q53 0 61 -71q-174 -168 -223 -232q-23 10 -36 32t-13 36z" />
<glyph unicode="&#xce;" horiz-adv-x="1030" d="M-37 -180q6 63 34 103t81 58.5t105.5 24.5t131.5 6q84 180 205 709.5t148 607.5q-254 -4 -486 -49q20 102 128 147.5t327 45.5q246 0 594 -46q-100 -96 -238 -96q-156 0 -221 -2l-12 -61q-4 -25 -75 -413t-103 -519q-61 -246 -148 -328q27 -2 193 -18.5t270 -18.5 q-121 -115 -276 -114q-285 0 -396.5 -6t-261.5 -31zM602 1745q0 55 92 115.5t146 60.5q51 0 123.5 -78t72.5 -139q0 -53 -51 -80q-47 80 -147 170q-94 -31 -209 -106q-27 16 -27 57z" />
<glyph unicode="&#xcf;" horiz-adv-x="1030" d="M-37 -180q6 63 34 103t81 58.5t105.5 24.5t131.5 6q84 180 205 709.5t148 607.5q-254 -4 -486 -49q20 102 128 147.5t327 45.5q246 0 594 -46q-100 -96 -238 -96q-156 0 -221 -2l-12 -61q-4 -25 -75 -413t-103 -519q-61 -246 -148 -328q27 -2 193 -18.5t270 -18.5 q-121 -115 -276 -114q-285 0 -396.5 -6t-261.5 -31zM600 1755q0 37 45 67.5t92 30.5q74 0 74 -65q0 -37 -39 -69.5t-84 -32.5q-37 0 -62.5 17t-25.5 52zM897 1714q0 39 44 68.5t93 29.5q76 0 76 -67q0 -37 -40 -68.5t-87 -31.5q-35 0 -60.5 18t-25.5 51z" />
<glyph unicode="&#xd0;" horiz-adv-x="1409" d="M57 543q59 115 291 129q88 283 146 428q14 37 31.5 73.5t58.5 80.5t84 44q35 0 77 -28q-117 -262 -223 -594q123 0 375 -21q-123 -84 -260 -84h-148q-117 -365 -180 -661q47 -6 78 -6q213 0 408.5 150.5t311.5 384t116 474.5q0 238 -118 358t-321 120q-201 0 -333 -105.5 t-132 -263.5q0 -55 19 -98q-164 0 -164 131q0 150 203 285t473 135q285 0 420 -162t135 -422q0 -213 -88 -414t-230.5 -343t-325.5 -227t-368 -85q-172 0 -250 102q51 254 172 645q-80 -1 -258 -26z" />
<glyph unicode="&#xd1;" horiz-adv-x="1380" d="M115 -178l434 1440q14 57 14 79q0 29 -26 29q-82 0 -152 -116.5t-70 -215.5q0 -49 21 -96q-164 0 -164 133t149.5 266.5t274.5 133.5q35 0 64.5 -12.5t53 -42t42 -58.5t35 -83t26.5 -93t23.5 -112t19.5 -116t19 -124q63 -440 94 -601q25 100 74 312l81 348 q33 133 76 274.5t78 200.5q61 109 166 109q-119 -309 -260 -869.5t-141 -785.5q-80 0 -127.5 38t-69.5 138q-8 33 -211 1139q-240 -870 -325.5 -1092.5t-198.5 -222.5zM743 1642q39 45 92.5 81t92.5 36q59 0 186 -41t197 -41q55 0 139 15q-104 -111 -188 -111 q-63 0 -197.5 39t-194.5 39q-33 -1 -127 -17z" />
<glyph unicode="&#xd2;" horiz-adv-x="1341" d="M66 336q0 258 128 523t338.5 439.5t430.5 174.5q84 0 139 -58q-33 4 -60 4q-172 0 -352 -172t-295.5 -430t-115.5 -493q0 -176 70.5 -290t217.5 -114q135 0 259 104.5t206 265.5t131 348t49 357q0 113 -21.5 204t-70.5 91q-66 0 -152.5 -150.5t-113.5 -281.5 q-129 27 -129 119q0 111 141.5 254t257.5 143q57 0 98.5 -43t61 -115.5t27.5 -144.5t8 -149q0 -250 -80 -464t-203 -349.5t-265 -211t-275 -75.5q-184 0 -307 140.5t-123 373.5zM895 1858q2 39 21.5 59t44.5 20q57 0 141 -94t84 -137q0 -18 -14.5 -41t-36.5 -33 q-101 120 -240 226z" />
<glyph unicode="&#xd3;" horiz-adv-x="1341" d="M66 336q0 258 128 523t338.5 439.5t430.5 174.5q84 0 139 -58q-33 4 -60 4q-172 0 -352 -172t-295.5 -430t-115.5 -493q0 -176 70.5 -290t217.5 -114q135 0 259 104.5t206 265.5t131 348t49 357q0 113 -21.5 204t-70.5 91q-66 0 -152.5 -150.5t-113.5 -281.5 q-129 27 -129 119q0 111 141.5 254t257.5 143q57 0 98.5 -43t61 -115.5t27.5 -144.5t8 -149q0 -250 -80 -464t-203 -349.5t-265 -211t-275 -75.5q-184 0 -307 140.5t-123 373.5zM987 1702q0 41 77 138t134 97q53 0 62 -71q-174 -168 -224 -232q-23 10 -36 32t-13 36z" />
<glyph unicode="&#xd4;" horiz-adv-x="1341" d="M66 336q0 258 128 523t338.5 439.5t430.5 174.5q84 0 139 -58q-33 4 -60 4q-172 0 -352 -172t-295.5 -430t-115.5 -493q0 -176 70.5 -290t217.5 -114q135 0 259 104.5t206 265.5t131 348t49 357q0 113 -21.5 204t-70.5 91q-66 0 -152.5 -150.5t-113.5 -281.5 q-129 27 -129 119q0 111 141.5 254t257.5 143q57 0 98.5 -43t61 -115.5t27.5 -144.5t8 -149q0 -250 -80 -464t-203 -349.5t-265 -211t-275 -75.5q-184 0 -307 140.5t-123 373.5zM864 1745q0 55 92.5 115.5t145.5 60.5q51 0 123.5 -78t72.5 -139q0 -53 -51 -80 q-47 80 -147 170q-94 -31 -209 -106q-27 16 -27 57z" />
<glyph unicode="&#xd5;" horiz-adv-x="1341" d="M66 336q0 258 128 523t338.5 439.5t430.5 174.5q84 0 139 -58q-33 4 -60 4q-172 0 -352 -172t-295.5 -430t-115.5 -493q0 -176 70.5 -290t217.5 -114q135 0 259 104.5t206 265.5t131 348t49 357q0 113 -21.5 204t-70.5 91q-66 0 -152.5 -150.5t-113.5 -281.5 q-129 27 -129 119q0 111 141.5 254t257.5 143q57 0 98.5 -43t61 -115.5t27.5 -144.5t8 -149q0 -250 -80 -464t-203 -349.5t-265 -211t-275 -75.5q-184 0 -307 140.5t-123 373.5zM805 1642q39 45 92 81t92 36q59 0 186.5 -41t196.5 -41q55 0 139 15q-104 -111 -188 -111 q-63 0 -197.5 39t-193.5 39q-33 -1 -127 -17z" />
<glyph unicode="&#xd6;" horiz-adv-x="1341" d="M66 336q0 258 128 523t338.5 439.5t430.5 174.5q84 0 139 -58q-33 4 -60 4q-172 0 -352 -172t-295.5 -430t-115.5 -493q0 -176 70.5 -290t217.5 -114q135 0 259 104.5t206 265.5t131 348t49 357q0 113 -21.5 204t-70.5 91q-66 0 -152.5 -150.5t-113.5 -281.5 q-129 27 -129 119q0 111 141.5 254t257.5 143q57 0 98.5 -43t61 -115.5t27.5 -144.5t8 -149q0 -250 -80 -464t-203 -349.5t-265 -211t-275 -75.5q-184 0 -307 140.5t-123 373.5zM827 1755q0 37 45.5 67.5t92.5 30.5q74 0 73 -65q0 -37 -38.5 -69.5t-84.5 -32.5 q-37 0 -62.5 17t-25.5 52zM1124 1714q0 39 44 68.5t94 29.5q76 0 75 -67q0 -37 -40 -68.5t-87 -31.5q-35 0 -60.5 18t-25.5 51z" />
<glyph unicode="&#xd7;" horiz-adv-x="829" d="M119 94q0 84 168 266q-139 143 -140 224q0 23 19 59q78 -98 194 -213q139 131 273 229q-8 -66 -35 -120t-47.5 -78.5t-62.5 -61.5t-46 -41l101 -92q92 -88 123 -225q-152 111 -295 240l-6 6q-131 -123 -226 -248q-20 32 -20 55z" />
<glyph unicode="&#xd8;" horiz-adv-x="1339" d="M61 340q0 254 130.5 519t337 438t413.5 173q90 0 129 -53h-29q-174 0 -354 -172t-296 -429t-116 -492q0 -162 54 -267q311 377 841 1178q-23 53 -53 53q-66 0 -153.5 -152.5t-114.5 -279.5q-127 29 -127 119q0 111 141.5 254t251.5 143q66 0 113 -57q16 23 67.5 41 t98.5 18q25 0 59 -6q-14 -18 -156 -223q20 -90 21 -211q0 -207 -52.5 -390.5t-138.5 -312.5t-194.5 -224t-220 -141t-215.5 -46q-88 0 -176 37q-96 -63 -179 -64q-27 0 -77 10q78 51 147 127q-152 146 -152 410zM432 -51q57 -31 127 -31q139 0 264 105.5t208 268.5 t131 355.5t48 370.5l-655 -924q-72 -96 -123 -145z" />
<glyph unicode="&#xd9;" horiz-adv-x="1536" d="M68 1098q0 133 122.5 254t290.5 121q238 0 238 -265q0 -154 -123 -549q-117 -371 -117 -505q0 -223 170 -224q104 0 196.5 93.5t143.5 207t80 234.5l55 219l56 217q39 145 65 225l62 170q35 92 66.5 134.5t60.5 42.5q45 0 131 -80q-39 -29 -129 -262.5t-170 -542.5 t-80 -498q0 -125 42 -167t150 -42q-23 -37 -75 -60.5t-99 -23.5q-76 0 -130 66.5t-54 163.5q0 16 4 106q-170 -313 -436 -313q-137 0 -214 82t-77 229.5t123 526t123 546.5q0 184 -111 185q-96 0 -152.5 -111t-56.5 -207q0 -63 27 -131q-182 0 -182 158zM864 1858 q2 39 21.5 59t44.5 20q57 0 141 -94t84 -137q0 -18 -14.5 -41t-36.5 -33q-101 120 -240 226z" />
<glyph unicode="&#xda;" horiz-adv-x="1536" d="M68 1098q0 133 122.5 254t290.5 121q238 0 238 -265q0 -154 -123 -549q-117 -371 -117 -505q0 -223 170 -224q104 0 196.5 93.5t143.5 207t80 234.5l55 219l56 217q39 145 65 225l62 170q35 92 66.5 134.5t60.5 42.5q45 0 131 -80q-39 -29 -129 -262.5t-170 -542.5 t-80 -498q0 -125 42 -167t150 -42q-23 -37 -75 -60.5t-99 -23.5q-76 0 -130 66.5t-54 163.5q0 16 4 106q-170 -313 -436 -313q-137 0 -214 82t-77 229.5t123 526t123 546.5q0 184 -111 185q-96 0 -152.5 -111t-56.5 -207q0 -63 27 -131q-182 0 -182 158zM1079 1702 q0 41 77 138t134 97q53 0 62 -71q-174 -168 -224 -232q-23 10 -36 32t-13 36z" />
<glyph unicode="&#xdb;" horiz-adv-x="1536" d="M68 1098q0 133 122.5 254t290.5 121q238 0 238 -265q0 -154 -123 -549q-117 -371 -117 -505q0 -223 170 -224q104 0 196.5 93.5t143.5 207t80 234.5l55 219l56 217q39 145 65 225l62 170q35 92 66.5 134.5t60.5 42.5q45 0 131 -80q-39 -29 -129 -262.5t-170 -542.5 t-80 -498q0 -125 42 -167t150 -42q-23 -37 -75 -60.5t-99 -23.5q-76 0 -130 66.5t-54 163.5q0 16 4 106q-170 -313 -436 -313q-137 0 -214 82t-77 229.5t123 526t123 546.5q0 184 -111 185q-96 0 -152.5 -111t-56.5 -207q0 -63 27 -131q-182 0 -182 158zM915 1745 q0 55 92.5 115.5t145.5 60.5q51 0 124 -78t73 -139q0 -53 -52 -80q-47 80 -147 170q-94 -31 -209 -106q-27 16 -27 57z" />
<glyph unicode="&#xdc;" horiz-adv-x="1536" d="M68 1098q0 133 122.5 254t290.5 121q238 0 238 -265q0 -154 -123 -549q-117 -371 -117 -505q0 -223 170 -224q104 0 196.5 93.5t143.5 207t80 234.5l55 219l56 217q39 145 65 225l62 170q35 92 66.5 134.5t60.5 42.5q45 0 131 -80q-39 -29 -129 -262.5t-170 -542.5 t-80 -498q0 -125 42 -167t150 -42q-23 -37 -75 -60.5t-99 -23.5q-76 0 -130 66.5t-54 163.5q0 16 4 106q-170 -313 -436 -313q-137 0 -214 82t-77 229.5t123 526t123 546.5q0 184 -111 185q-96 0 -152.5 -111t-56.5 -207q0 -63 27 -131q-182 0 -182 158zM877 1755 q0 37 45 67.5t92 30.5q74 0 73 -65q0 -37 -38.5 -69.5t-83.5 -32.5q-37 0 -62.5 17t-25.5 52zM1174 1714q0 39 44 68.5t93 29.5q76 0 75 -67q0 -37 -39.5 -68.5t-86.5 -31.5q-35 0 -60.5 18t-25.5 51z" />
<glyph unicode="&#xdd;" horiz-adv-x="1445" d="M66 1098q0 133 121.5 255t291.5 122q117 0 178.5 -63.5t61.5 -162.5q0 -72 -57 -276q-74 -264 -74 -373q0 -193 145 -192q131 0 244 140t184 351l41 135l49 158q20 66 48 136.5t59 108.5t61 38q61 0 140 -78q-106 -164 -159.5 -325t-178.5 -677q-31 -127 -59.5 -219 t-82 -204.5t-116 -184.5t-160.5 -121t-217 -49q-131 0 -213 53.5t-82 149.5q0 66 41 116t114 66q-23 -100 -22 -139q0 -174 186 -174q115 0 198 67.5t128 183t71.5 224t48 241t38.5 183.5q-180 -291 -428 -291q-129 0 -190.5 71.5t-61.5 190.5q0 102 65.5 348t65.5 334 q0 147 -111 148q-100 0 -155.5 -105.5t-55.5 -228.5q0 -49 25 -115q-182 0 -182 158zM1040 1702q0 41 77 138t134 97q53 0 62 -71q-174 -168 -223 -232q-23 10 -36.5 32t-13.5 36z" />
<glyph unicode="&#xde;" horiz-adv-x="1112" d="M100 -61q0 35 27 114q209 651 369 1057q-70 -14 -137.5 -42t-106.5 -48.5t-49 -20.5q-18 0 -50 29t-32 51q240 94 409 111q8 18 25.5 64t31 77t34 66t46 52t56.5 17q33 0 65 -36q-59 -119 -104 -240q201 -27 345.5 -130.5t144.5 -279.5q0 -106 -59.5 -191t-145.5 -134 t-198 -82t-199 -46.5t-164 -15.5q-27 -90 -71 -256t-65 -233q-66 0 -119 34t-53 83zM426 381q242 31 411 144.5t169 297.5q0 143 -101.5 216t-249.5 79q-102 -278 -229 -737z" />
<glyph unicode="&#xdf;" horiz-adv-x="964" d="M-88 -236q31 39 57.5 159t50.5 272l52 331q29 178 73.5 347t103 307.5t151 222.5t206.5 84q104 0 174 -64.5t70 -177.5q0 -141 -103.5 -267t-244.5 -208q143 -43 223 -164t80 -276q0 -186 -105.5 -342t-257.5 -156q-109 0 -153.5 80t-44.5 197q0 109 34.5 182.5 t102.5 73.5q27 0 80 -11q-43 -23 -74 -110.5t-31 -190.5q0 -152 66 -151q68 0 142.5 142t74.5 292q0 229 -170 371q-49 39 -49 67.5t55 75.5q70 61 111 104t82 124t41 167q0 158 -119 158q-115 0 -190.5 -156.5t-114.5 -386.5l-80 -465q-39 -236 -111.5 -417t-181.5 -214z " />
<glyph unicode="&#xe0;" horiz-adv-x="909" d="M-53 84q0 119 84 264.5t222 249.5t273 104q90 0 150.5 -46t60.5 -117q0 -94 -116 -99q74 -23 73 -61q0 -23 -58 -122t-58 -148q0 -74 61 -74q57 0 146 80t173 239l39 -39q-76 -170 -188.5 -273t-226.5 -103q-82 0 -126 54t-44 124q-92 -111 -158 -162t-139 -51 q-72 0 -120 47t-48 133zM111 74q0 -66 47 -66q27 0 56.5 15.5t64.5 46.5l63 61q31 31 70 80l61 78l59 80l50 67q6 10 16 10h4l4 -2q10 33 10 76q0 106 -86 107q-135 0 -277 -200.5t-142 -352.5zM367 1063q2 39 21.5 59.5t43.5 20.5q57 0 141 -94.5t84 -137.5 q0 -18 -14 -40.5t-37 -32.5q-100 119 -239 225z" />
<glyph unicode="&#xe1;" horiz-adv-x="909" d="M-53 84q0 119 84 264.5t222 249.5t273 104q90 0 150.5 -46t60.5 -117q0 -94 -116 -99q74 -23 73 -61q0 -23 -58 -122t-58 -148q0 -74 61 -74q57 0 146 80t173 239l39 -39q-76 -170 -188.5 -273t-226.5 -103q-82 0 -126 54t-44 124q-92 -111 -158 -162t-139 -51 q-72 0 -120 47t-48 133zM111 74q0 -66 47 -66q27 0 56.5 15.5t64.5 46.5l63 61q31 31 70 80l61 78l59 80l50 67q6 10 16 10h4l4 -2q10 33 10 76q0 106 -86 107q-135 0 -277 -200.5t-142 -352.5zM561 907q0 41 77 138.5t134 97.5q53 0 62 -72q-174 -168 -224 -231 q-23 10 -36 31.5t-13 35.5z" />
<glyph unicode="&#xe2;" horiz-adv-x="909" d="M-53 84q0 119 84 264.5t222 249.5t273 104q90 0 150.5 -46t60.5 -117q0 -94 -116 -99q74 -23 73 -61q0 -23 -58 -122t-58 -148q0 -74 61 -74q57 0 146 80t173 239l39 -39q-76 -170 -188.5 -273t-226.5 -103q-82 0 -126 54t-44 124q-92 -111 -158 -162t-139 -51 q-72 0 -120 47t-48 133zM111 74q0 -66 47 -66q27 0 56.5 15.5t64.5 46.5l63 61q31 31 70 80l61 78l59 80l50 67q6 10 16 10h4l4 -2q10 33 10 76q0 106 -86 107q-135 0 -277 -200.5t-142 -352.5zM479 950q0 55 92.5 115.5t145.5 60.5q51 0 123.5 -77.5t72.5 -139.5 q0 -53 -51 -80q-47 80 -147 170q-94 -31 -209 -106q-27 16 -27 57z" />
<glyph unicode="&#xe3;" horiz-adv-x="909" d="M-53 84q0 119 84 264.5t222 249.5t273 104q90 0 150.5 -46t60.5 -117q0 -94 -116 -99q74 -23 73 -61q0 -23 -58 -122t-58 -148q0 -74 61 -74q57 0 146 80t173 239l39 -39q-76 -170 -188.5 -273t-226.5 -103q-82 0 -126 54t-44 124q-92 -111 -158 -162t-139 -51 q-72 0 -120 47t-48 133zM111 74q0 -66 47 -66q27 0 56.5 15.5t64.5 46.5l63 61q31 31 70 80l61 78l59 80l50 67q6 10 16 10h4l4 -2q10 33 10 76q0 106 -86 107q-135 0 -277 -200.5t-142 -352.5zM303 848q39 45 92.5 81t91.5 36q59 0 186.5 -41t196.5 -41q55 0 140 14 q-104 -111 -189 -111q-63 0 -197.5 39t-193.5 39q-33 0 -127 -16z" />
<glyph unicode="&#xe4;" horiz-adv-x="909" d="M-53 84q0 119 84 264.5t222 249.5t273 104q90 0 150.5 -46t60.5 -117q0 -94 -116 -99q74 -23 73 -61q0 -23 -58 -122t-58 -148q0 -74 61 -74q57 0 146 80t173 239l39 -39q-76 -170 -188.5 -273t-226.5 -103q-82 0 -126 54t-44 124q-92 -111 -158 -162t-139 -51 q-72 0 -120 47t-48 133zM111 74q0 -66 47 -66q27 0 56.5 15.5t64.5 46.5l63 61q31 31 70 80l61 78l59 80l50 67q6 10 16 10h4l4 -2q10 33 10 76q0 106 -86 107q-135 0 -277 -200.5t-142 -352.5zM442 961q0 37 45 67.5t93 30.5q74 0 73 -66q0 -37 -39 -69.5t-84 -32.5 q-37 0 -62.5 17.5t-25.5 52.5zM739 920q0 39 44 68.5t94 29.5q76 0 75 -68q0 -37 -40 -68.5t-87 -31.5q-35 0 -60.5 18.5t-25.5 51.5z" />
<glyph unicode="&#xe5;" horiz-adv-x="909" d="M-53 84q0 119 84 264.5t222 249.5t273 104q90 0 150.5 -46t60.5 -117q0 -94 -116 -99q74 -23 73 -61q0 -23 -58 -122t-58 -148q0 -74 61 -74q57 0 146 80t173 239l39 -39q-76 -170 -188.5 -273t-226.5 -103q-82 0 -126 54t-44 124q-92 -111 -158 -162t-139 -51 q-72 0 -120 47t-48 133zM111 74q0 -66 47 -66q27 0 56.5 15.5t64.5 46.5l63 61q31 31 70 80l61 78l59 80l50 67q6 10 16 10h4l4 -2q10 33 10 76q0 106 -86 107q-135 0 -277 -200.5t-142 -352.5zM528 928q0 76 76 149.5t178 73.5q84 0 126 -33t42 -84q0 -78 -78.5 -150.5 t-183.5 -72.5q-80 0 -120 33t-40 84zM635 940q2 -23 19.5 -40t50.5 -17q51 0 96 46t45 91q0 53 -72 53q-51 0 -95 -44t-44 -89z" />
<glyph unicode="&#xe6;" horiz-adv-x="1138" d="M-53 84q0 119 85 264.5t224 251t274 105.5q111 0 150 -76q143 109 270 108q145 0 146 -135q0 -147 -160 -262t-356 -135q-4 -20 -5 -58q8 -150 158 -149q125 0 252 101.5t207 252.5l39 -33q-84 -186 -232.5 -297.5t-308.5 -111.5q-115 0 -185.5 57.5t-84.5 147.5 q-172 -211 -301 -211q-74 0 -123 47t-49 133zM119 80q0 -63 45 -64q94 0 254 199q29 188 194 350q-16 55 -86 56q-90 0 -188 -96.5t-158.5 -223.5t-60.5 -221zM600 281q141 53 260 143t119 192q0 29 -33 29q-90 0 -194.5 -113.5t-151.5 -250.5z" />
<glyph unicode="&#xe7;" horiz-adv-x="681" d="M-12 156q0 201 143 368.5t311 167.5q82 0 122 -41t40 -102.5t-29.5 -113.5t-72.5 -52q-39 0 -64 39q66 45 66 153q0 35 -39 35q-100 0 -210 -163.5t-110 -303.5q0 -154 146 -153q121 0 247 101.5t191 262.5l41 -37q-96 -244 -307 -364l-76 -121q68 25 111 25 q49 0 79.5 -27t30.5 -76q0 -86 -83 -166t-187 -80q-57 0 -96 27t-39 57q0 43 65 89q27 -92 82 -93q49 0 107.5 61.5t58.5 108.5q0 33 -33 33q-27 0 -86 -38t-75.5 -38t-29.5 17.5t-13 34.5q0 6 45 66.5t67 80.5l12 10q-90 -39 -172 -39q-111 0 -177 69t-66 202z" />
<glyph unicode="&#xe8;" horiz-adv-x="698" d="M-35 158q0 186 173 383.5t358 197.5q150 0 149 -137q0 -147 -159.5 -262t-356.5 -135q-4 -20 -4 -47q0 -20 3 -39t16.5 -50.5t49 -51t89.5 -19.5q125 0 255 101.5t210 252.5l40 -33q-82 -184 -234.5 -296.5t-315.5 -112.5q-129 0 -201 69.5t-72 178.5zM152 281 q119 14 251 118.5t132 212.5q0 39 -35 39q-90 0 -196.5 -118.5t-151.5 -251.5zM365 1063q2 39 21.5 59.5t43.5 20.5q57 0 141 -94.5t84 -137.5q0 -18 -14 -40.5t-37 -32.5q-100 119 -239 225z" />
<glyph unicode="&#xe9;" horiz-adv-x="698" d="M-35 158q0 186 173 383.5t358 197.5q150 0 149 -137q0 -147 -159.5 -262t-356.5 -135q-4 -20 -4 -47q0 -20 3 -39t16.5 -50.5t49 -51t89.5 -19.5q125 0 255 101.5t210 252.5l40 -33q-82 -184 -234.5 -296.5t-315.5 -112.5q-129 0 -201 69.5t-72 178.5zM152 281 q119 14 251 118.5t132 212.5q0 39 -35 39q-90 0 -196.5 -118.5t-151.5 -251.5zM559 907q0 41 77 138.5t134 97.5q53 0 61 -72q-174 -168 -223 -231q-23 10 -36 31.5t-13 35.5z" />
<glyph unicode="&#xea;" horiz-adv-x="698" d="M-35 158q0 186 173 383.5t358 197.5q150 0 149 -137q0 -147 -159.5 -262t-356.5 -135q-4 -20 -4 -47q0 -20 3 -39t16.5 -50.5t49 -51t89.5 -19.5q125 0 255 101.5t210 252.5l40 -33q-82 -184 -234.5 -296.5t-315.5 -112.5q-129 0 -201 69.5t-72 178.5zM152 281 q119 14 251 118.5t132 212.5q0 39 -35 39q-90 0 -196.5 -118.5t-151.5 -251.5zM395 950q0 55 92.5 115.5t145.5 60.5q51 0 123.5 -77.5t72.5 -139.5q0 -53 -51 -80q-47 80 -147 170q-94 -31 -209 -106q-27 16 -27 57z" />
<glyph unicode="&#xeb;" horiz-adv-x="698" d="M-35 158q0 186 173 383.5t358 197.5q150 0 149 -137q0 -147 -159.5 -262t-356.5 -135q-4 -20 -4 -47q0 -20 3 -39t16.5 -50.5t49 -51t89.5 -19.5q125 0 255 101.5t210 252.5l40 -33q-82 -184 -234.5 -296.5t-315.5 -112.5q-129 0 -201 69.5t-72 178.5zM152 281 q119 14 251 118.5t132 212.5q0 39 -35 39q-90 0 -196.5 -118.5t-151.5 -251.5zM356 981q0 37 45 67.5t93 30.5q74 0 73 -65q0 -37 -39 -70t-84 -33q-37 0 -62.5 17.5t-25.5 52.5zM653 940q0 39 44 68.5t94 29.5q76 0 75 -67q0 -37 -40 -69t-87 -32q-35 0 -60.5 18.5 t-25.5 51.5z" />
<glyph unicode="&#xec;" horiz-adv-x="499" d="M-16 121q0 82 43 216t116.5 246.5t145.5 112.5q27 0 44 -15t17 -44q0 -27 -52 -112t-105.5 -192.5t-53.5 -185.5q0 -63 22.5 -85.5t69.5 -22.5q162 0 322 313l31 -33q-72 -180 -182.5 -280t-237.5 -100q-86 0 -133 51t-47 131zM102 1042q2 39 21.5 59.5t44.5 20.5 q57 0 141 -94t84 -137q0 -18 -14 -41t-37 -33q-101 119 -240 225z" />
<glyph unicode="&#xed;" horiz-adv-x="499" d="M-16 121q0 82 43 216t116.5 246.5t145.5 112.5q27 0 44 -15t17 -44q0 -27 -52 -112t-105.5 -192.5t-53.5 -185.5q0 -63 22.5 -85.5t69.5 -22.5q162 0 322 313l31 -33q-72 -180 -182.5 -280t-237.5 -100q-86 0 -133 51t-47 131zM377 887q0 41 76.5 138t134.5 97 q53 0 61 -71q-174 -168 -223 -232q-23 10 -36 32t-13 36z" />
<glyph unicode="&#xee;" horiz-adv-x="499" d="M-16 121q0 82 43 216t116.5 246.5t145.5 112.5q27 0 44 -15t17 -44q0 -27 -52 -112t-105.5 -192.5t-53.5 -185.5q0 -63 22.5 -85.5t69.5 -22.5q162 0 322 313l31 -33q-72 -180 -182.5 -280t-237.5 -100q-86 0 -133 51t-47 131zM150 930q0 55 92 115.5t145 60.5 q51 0 124 -78t73 -139q0 -53 -52 -80q-47 80 -147 170q-94 -31 -209 -107q-26 15 -26 58z" />
<glyph unicode="&#xef;" horiz-adv-x="499" d="M-16 121q0 82 43 216t116.5 246.5t145.5 112.5q27 0 44 -15t17 -44q0 -27 -52 -112t-105.5 -192.5t-53.5 -185.5q0 -63 22.5 -85.5t69.5 -22.5q162 0 322 313l31 -33q-72 -180 -182.5 -280t-237.5 -100q-86 0 -133 51t-47 131zM154 922q0 37 45 67.5t92 30.5q74 0 74 -66 q0 -37 -39 -69.5t-84 -32.5q-37 0 -62.5 17.5t-25.5 52.5zM451 881q0 39 44 68.5t93 29.5q76 0 76 -68q0 -35 -40 -67.5t-87 -32.5q-35 0 -60.5 18.5t-25.5 51.5z" />
<glyph unicode="&#xf0;" horiz-adv-x="999" d="M-39 119q0 115 84 264t218 259t259 110q59 0 92 -25t33 -59q0 -20 -16 -54q-37 47 -101 48q-96 0 -193 -98.5t-151.5 -219.5t-54.5 -203q0 -86 64 -86q82 0 211 142.5t230 365.5t101 416q0 37 -8 88q-129 -20 -254 -53q0 74 59.5 104.5t170.5 44.5q-49 141 -195 254 q43 55 104 56q92 0 162 -84t107 -207q150 14 217 35q-45 -74 -83 -95.5t-114 -31.5q8 -61 8 -89q0 -135 -110.5 -448t-110.5 -420q0 -76 49 -76q68 0 162 87t156 221l39 -25q-74 -174 -191 -283.5t-233 -109.5q-150 0 -150 180q0 49 19 152q-100 -145 -215 -242.5 t-205 -97.5q-63 0 -111.5 47t-48.5 133z" />
<glyph unicode="&#xf1;" horiz-adv-x="968" d="M-78 29q0 2 37 92t69.5 202.5t32.5 190.5q45 49 107 49q72 0 72 -61q0 -55 -35 -183q209 279 387 279q82 0 127 -56.5t45 -133.5q0 -68 -40 -167.5t-40 -140.5q0 -59 49 -59q68 0 146.5 93t142.5 220l35 -28q-162 -367 -367 -367q-78 0 -121 39t-43 102q0 41 29 133.5 t29 137.5q0 80 -72 80q-57 0 -121.5 -46.5t-133.5 -136.5t-105 -145l-97 -154q-88 1 -133 60zM229 758q39 45 92.5 80.5t92.5 35.5q59 0 186 -40.5t197 -40.5q55 0 139 14q-104 -111 -188 -111q-63 0 -197.5 39t-194.5 39q-33 0 -127 -16z" />
<glyph unicode="&#xf2;" horiz-adv-x="761" d="M-25 127q0 135 78 264t168 129q25 0 64 -16q12 94 66.5 155.5t152.5 61.5q82 0 121 -46t39 -120q0 -141 -136 -348q25 -12 58 -12q57 0 122.5 37.5t100.5 115.5l37 -26q-43 -98 -116 -149.5t-150 -51.5q-47 0 -103 18q-170 -205 -342 -205q-86 0 -123 55.5t-37 137.5z M139 133q0 -94 70 -94q74 0 197 145q-117 102 -123 301q-39 -20 -91.5 -142t-52.5 -210zM399 451q0 -47 16.5 -107.5t43.5 -93.5q119 170 119 305q0 90 -58 90q-43 0 -82 -57t-39 -137zM465 1055q2 39 21.5 59.5t43.5 20.5q57 0 141.5 -94.5t84.5 -137.5q0 -18 -14.5 -40.5 t-36.5 -33.5q-101 120 -240 226z" />
<glyph unicode="&#xf3;" horiz-adv-x="761" d="M-25 127q0 135 78 264t168 129q25 0 64 -16q12 94 66.5 155.5t152.5 61.5q82 0 121 -46t39 -120q0 -141 -136 -348q25 -12 58 -12q57 0 122.5 37.5t100.5 115.5l37 -26q-43 -98 -116 -149.5t-150 -51.5q-47 0 -103 18q-170 -205 -342 -205q-86 0 -123 55.5t-37 137.5z M139 133q0 -94 70 -94q74 0 197 145q-117 102 -123 301q-39 -20 -91.5 -142t-52.5 -210zM399 451q0 -47 16.5 -107.5t43.5 -93.5q119 170 119 305q0 90 -58 90q-43 0 -82 -57t-39 -137zM678 907q0 41 76.5 138.5t134.5 97.5q53 0 61 -72q-174 -168 -223 -231 q-23 10 -36 31.5t-13 35.5z" />
<glyph unicode="&#xf4;" horiz-adv-x="761" d="M-25 127q0 135 78 264t168 129q25 0 64 -16q12 94 66.5 155.5t152.5 61.5q82 0 121 -46t39 -120q0 -141 -136 -348q25 -12 58 -12q57 0 122.5 37.5t100.5 115.5l37 -26q-43 -98 -116 -149.5t-150 -51.5q-47 0 -103 18q-170 -205 -342 -205q-86 0 -123 55.5t-37 137.5z M139 133q0 -94 70 -94q74 0 197 145q-117 102 -123 301q-39 -20 -91.5 -142t-52.5 -210zM399 451q0 -47 16.5 -107.5t43.5 -93.5q119 170 119 305q0 90 -58 90q-43 0 -82 -57t-39 -137zM403 950q0 55 92.5 115.5t145.5 60.5q51 0 124 -77.5t73 -139.5q0 -53 -52 -80 q-47 80 -147 170q-94 -31 -209 -106q-27 16 -27 57z" />
<glyph unicode="&#xf5;" horiz-adv-x="761" d="M-25 127q0 135 78 264t168 129q25 0 64 -16q12 94 66.5 155.5t152.5 61.5q82 0 121 -46t39 -120q0 -141 -136 -348q25 -12 58 -12q57 0 122.5 37.5t100.5 115.5l37 -26q-43 -98 -116 -149.5t-150 -51.5q-47 0 -103 18q-170 -205 -342 -205q-86 0 -123 55.5t-37 137.5z M139 133q0 -94 70 -94q74 0 197 145q-117 102 -123 301q-39 -20 -91.5 -142t-52.5 -210zM289 848q39 45 92 81t92 36q59 0 186 -41t197 -41q55 0 139 14q-104 -111 -188 -111q-63 0 -197.5 39t-193.5 39q-33 0 -127 -16zM399 451q0 -47 16.5 -107.5t43.5 -93.5 q119 170 119 305q0 90 -58 90q-43 0 -82 -57t-39 -137z" />
<glyph unicode="&#xf6;" horiz-adv-x="761" d="M-25 127q0 135 78 264t168 129q25 0 64 -16q12 94 66.5 155.5t152.5 61.5q82 0 121 -46t39 -120q0 -141 -136 -348q25 -12 58 -12q57 0 122.5 37.5t100.5 115.5l37 -26q-43 -98 -116 -149.5t-150 -51.5q-47 0 -103 18q-170 -205 -342 -205q-86 0 -123 55.5t-37 137.5z M139 133q0 -94 70 -94q74 0 197 145q-117 102 -123 301q-39 -20 -91.5 -142t-52.5 -210zM387 961q0 37 45 67.5t92 30.5q74 0 74 -66q0 -37 -39 -69.5t-84 -32.5q-37 0 -62.5 17.5t-25.5 52.5zM399 451q0 -47 16.5 -107.5t43.5 -93.5q119 170 119 305q0 90 -58 90 q-43 0 -82 -57t-39 -137zM684 920q0 39 44 68.5t93 29.5q76 0 76 -68q0 -37 -40 -68.5t-87 -31.5q-35 0 -60.5 18.5t-25.5 51.5z" />
<glyph unicode="&#xf7;" horiz-adv-x="1005" d="M53 238q23 82 129.5 105.5t298.5 23.5q143 0 396 -21q-70 -47 -156 -65.5t-254 -18.5q-221 1 -414 -24zM295 37q0 37 43 66.5t90 29.5q70 0 70 -63q0 -35 -38 -68t-81 -33q-35 0 -59.5 17.5t-24.5 50.5zM414 547q0 37 43 66.5t90 29.5q70 0 69 -63q0 -35 -36.5 -68 t-81.5 -33q-35 0 -59.5 17.5t-24.5 50.5z" />
<glyph unicode="&#xf8;" horiz-adv-x="761" d="M-92 -98q45 27 104 88q-37 51 -37 137q0 135 78 264t168 129q25 0 64 -16q12 94 66.5 155.5t152.5 61.5q49 0 86 -21l49 66q20 31 90 31q25 0 49 -6q-23 -33 -125 -166q10 -35 11 -70q0 -141 -136 -348q35 -20 76 -21q59 0 113.5 42t91.5 120l37 -26q-43 -98 -116 -149.5 t-150 -51.5q-47 0 -103 18q-170 -205 -342 -205q-35 0 -53 9q-72 -47 -135 -47q-21 0 -39 6zM139 127q125 147 168 205q-20 61 -24 153q-39 -20 -91.5 -143t-52.5 -215zM190 41q6 -2 19 -2q74 0 197 145q-37 33 -54 60q-131 -166 -145 -185zM399 446l146 193q-8 6 -25 6 q-43 0 -82 -58.5t-39 -140.5zM420 328q12 -49 39 -78q104 147 116 278z" />
<glyph unicode="&#xf9;" horiz-adv-x="903" d="M-2 152q0 117 67.5 287.5t118.5 170.5q43 0 97 -53q-43 -63 -89.5 -182t-46.5 -205q0 -123 62 -123q53 0 131 101.5t132 206t99 204.5q123 -20 123 -70q0 -4 -32.5 -76.5t-64.5 -166.5t-32 -152q0 -72 55 -71q68 0 167.5 91t170.5 236l31 -24q-70 -166 -192.5 -276.5 t-237.5 -110.5q-39 0 -66.5 15t-42 35.5t-22.5 55.5t-9 59.5t-1 63.5q-45 -70 -78 -112t-84 -79.5t-98 -37.5q-68 0 -113 63.5t-45 149.5zM242 991q2 39 21.5 59.5t43.5 20.5q57 0 141 -94t84 -137q0 -18 -14 -41t-37 -33q-100 119 -239 225z" />
<glyph unicode="&#xfa;" horiz-adv-x="903" d="M-2 152q0 117 67.5 287.5t118.5 170.5q43 0 97 -53q-43 -63 -89.5 -182t-46.5 -205q0 -123 62 -123q53 0 131 101.5t132 206t99 204.5q123 -20 123 -70q0 -4 -32.5 -76.5t-64.5 -166.5t-32 -152q0 -72 55 -71q68 0 167.5 91t170.5 236l31 -24q-70 -166 -192.5 -276.5 t-237.5 -110.5q-39 0 -66.5 15t-42 35.5t-22.5 55.5t-9 59.5t-1 63.5q-45 -70 -78 -112t-84 -79.5t-98 -37.5q-68 0 -113 63.5t-45 149.5zM442 772q0 41 77 138.5t134 97.5q53 0 62 -72q-174 -168 -223 -231q-23 10 -36.5 31.5t-13.5 35.5z" />
<glyph unicode="&#xfb;" horiz-adv-x="903" d="M-2 152q0 117 67.5 287.5t118.5 170.5q43 0 97 -53q-43 -63 -89.5 -182t-46.5 -205q0 -123 62 -123q53 0 131 101.5t132 206t99 204.5q123 -20 123 -70q0 -4 -32.5 -76.5t-64.5 -166.5t-32 -152q0 -72 55 -71q68 0 167.5 91t170.5 236l31 -24q-70 -166 -192.5 -276.5 t-237.5 -110.5q-39 0 -66.5 15t-42 35.5t-22.5 55.5t-9 59.5t-1 63.5q-45 -70 -78 -112t-84 -79.5t-98 -37.5q-68 0 -113 63.5t-45 149.5zM297 848q0 55 92 115.5t146 60.5q51 0 123.5 -78t72.5 -139q0 -53 -51 -80q-47 80 -148 170q-92 -31 -208 -106q-27 16 -27 57z" />
<glyph unicode="&#xfc;" horiz-adv-x="903" d="M-2 152q0 117 67.5 287.5t118.5 170.5q43 0 97 -53q-43 -63 -89.5 -182t-46.5 -205q0 -123 62 -123q53 0 131 101.5t132 206t99 204.5q123 -20 123 -70q0 -4 -32.5 -76.5t-64.5 -166.5t-32 -152q0 -72 55 -71q68 0 167.5 91t170.5 236l31 -24q-70 -166 -192.5 -276.5 t-237.5 -110.5q-39 0 -66.5 15t-42 35.5t-22.5 55.5t-9 59.5t-1 63.5q-45 -70 -78 -112t-84 -79.5t-98 -37.5q-68 0 -113 63.5t-45 149.5zM274 860q0 37 45.5 67.5t92.5 30.5q74 0 73 -65q0 -37 -38.5 -69.5t-84.5 -32.5q-37 0 -62.5 17t-25.5 52zM571 819q0 39 44 69t94 30 q76 0 75 -68q0 -35 -39.5 -67.5t-87.5 -32.5q-35 0 -60.5 18t-25.5 51z" />
<glyph unicode="&#xfd;" horiz-adv-x="819" d="M-41 -440q0 49 28.5 96t61.5 80t101.5 72.5t105.5 56.5l111 55q35 88 98 320q-158 -223 -295 -224q-68 0 -121 41t-53 129q0 111 69.5 279t118.5 168q20 0 61.5 -21.5t49.5 -46.5q-39 -53 -85 -178t-46 -197q0 -76 59 -75q115 0 271 247q2 4 9 46.5t15 71t37 56t70 27.5 q8 0 65 -8q-2 -51 -48 -223t-107 -336q233 96 329 346l35 -29q-78 -256 -391 -395q-207 -492 -410 -491q-57 0 -98 33.5t-41 99.5zM39 -440q0 -57 39 -58q43 0 112.5 87t137.5 241q-289 -145 -289 -270zM485 815q0 41 77 138.5t134 97.5q53 0 62 -72q-174 -168 -223 -231 q-23 10 -36.5 31.5t-13.5 35.5z" />
<glyph unicode="&#xfe;" horiz-adv-x="849" d="M-188 -479q119 393 188.5 708.5t118.5 794.5q2 20 5 28.5t14.5 13.5t35.5 5q59 0 85 -25.5t26 -93.5q0 -100 -66 -489q152 238 336 237q100 0 166.5 -67.5t66.5 -177.5q0 -176 -147 -347t-356 -171q-63 0 -102.5 16t-39.5 37q0 23 68 22q160 0 287 134.5t127 285.5 q0 145 -113 146q-96 0 -193.5 -105.5t-140.5 -208.5q-98 -416 -167.5 -626.5t-121.5 -210.5q-25 0 -51 39t-26 55z" />
<glyph unicode="&#xff;" horiz-adv-x="819" d="M-41 -440q0 49 28.5 96t61.5 80t101.5 72.5t105.5 56.5l111 55q35 88 98 320q-158 -223 -295 -224q-68 0 -121 41t-53 129q0 111 69.5 279t118.5 168q20 0 61.5 -21.5t49.5 -46.5q-39 -53 -85 -178t-46 -197q0 -76 59 -75q115 0 271 247q2 4 9 46.5t15 71t37 56t70 27.5 q8 0 65 -8q-2 -51 -48 -223t-107 -336q233 96 329 346l35 -29q-78 -256 -391 -395q-207 -492 -410 -491q-57 0 -98 33.5t-41 99.5zM39 -440q0 -57 39 -58q43 0 112.5 87t137.5 241q-289 -145 -289 -270zM283 887q0 37 45 67.5t92 30.5q74 0 74 -65q0 -37 -39 -70t-84 -33 q-37 0 -62.5 17.5t-25.5 52.5zM580 846q0 39 44 68.5t93 29.5q76 0 76 -67q0 -37 -40 -69t-87 -32q-35 0 -60.5 18.5t-25.5 51.5z" />
<glyph unicode="&#x152;" horiz-adv-x="1736" d="M66 336q0 258 129 523t334.5 439.5t410.5 174.5q96 0 135 -54q-186 0 -374.5 -173t-305 -429t-116.5 -493q0 -174 70.5 -289t211.5 -115q158 0 296 176t214 427t76 489q0 88 -9.5 148.5t-21.5 84t-29 23.5q-74 0 -235 -410q-127 29 -127 115q0 113 137 255t250 148 q104 6 252 6q311 0 434 -39q-33 -96 -379 -96q-18 0 -68.5 2t-84.5 2q20 -72 20 -174q0 -180 -16 -315q293 -4 436 -23q-47 -127 -313 -127q-66 0 -148 4q-63 -287 -122.5 -438t-178.5 -237q98 -2 311 -2q29 0 124.5 4t129.5 4q37 0 62 -6q-23 -59 -222.5 -90t-433.5 -31 q-57 0 -182 1t-186 1q-219 0 -350 130t-131 384z" />
<glyph unicode="&#x153;" horiz-adv-x="1132" d="M-57 84q0 119 85 264.5t223 251t269 105.5q100 0 142 -80q150 113 286 112q143 0 144 -135q0 -147 -160 -262t-357 -135q-4 -20 -4 -49q0 -158 152 -158q125 0 255 102.5t210 251.5l35 -30q-84 -184 -233.5 -298t-313.5 -114q-117 0 -181.5 56.5t-78.5 142.5 q-168 -205 -301 -205q-74 0 -123 47t-49 133zM109 72q0 -66 43 -66q53 0 151 86t115 135q-139 51 -144 228q-70 -88 -117.5 -197.5t-47.5 -185.5zM377 424q0 -66 63 -113q59 152 166 256q-25 59 -82 59.5t-102 -65t-45 -137.5zM596 281q139 51 259 143t120 188q0 33 -35 33 q-88 0 -193.5 -115.5t-150.5 -248.5z" />
<glyph unicode="&#x178;" horiz-adv-x="1445" d="M66 1098q0 133 121.5 255t291.5 122q117 0 178.5 -63.5t61.5 -162.5q0 -72 -57 -276q-74 -264 -74 -373q0 -193 145 -192q131 0 244 140t184 351l41 135l49 158q20 66 48 136.5t59 108.5t61 38q61 0 140 -78q-106 -164 -159.5 -325t-178.5 -677q-31 -127 -59.5 -219 t-82 -204.5t-116 -184.5t-160.5 -121t-217 -49q-131 0 -213 53.5t-82 149.5q0 66 41 116t114 66q-23 -100 -22 -139q0 -174 186 -174q115 0 198 67.5t128 183t71.5 224t48 241t38.5 183.5q-180 -291 -428 -291q-129 0 -190.5 71.5t-61.5 190.5q0 102 65.5 348t65.5 334 q0 147 -111 148q-100 0 -155.5 -105.5t-55.5 -228.5q0 -49 25 -115q-182 0 -182 158zM817 1755q0 37 45 67.5t92 30.5q74 0 74 -65q0 -37 -39 -69.5t-84 -32.5q-37 0 -62.5 17t-25.5 52zM1114 1714q0 39 44 68.5t93 29.5q76 0 76 -67q0 -37 -40 -68.5t-87 -31.5 q-35 0 -60.5 18t-25.5 51z" />
<glyph unicode="&#x2c6;" horiz-adv-x="430" d="M-2 950q0 55 92 115.5t146 60.5q51 0 123.5 -77.5t72.5 -139.5q0 -53 -51 -80q-47 80 -148 170q-92 -31 -208 -106q-27 16 -27 57z" />
<glyph unicode="&#x2dc;" horiz-adv-x="581" d="M-37 848q39 45 92.5 81t91.5 36q59 0 186.5 -41t196.5 -41q55 0 140 14q-104 -111 -189 -111q-63 0 -197 39t-194 39q-33 0 -127 -16z" />
<glyph unicode="&#x2000;" horiz-adv-x="972" />
<glyph unicode="&#x2001;" horiz-adv-x="1945" />
<glyph unicode="&#x2002;" horiz-adv-x="972" />
<glyph unicode="&#x2003;" horiz-adv-x="1945" />
<glyph unicode="&#x2004;" horiz-adv-x="647" />
<glyph unicode="&#x2005;" horiz-adv-x="485" />
<glyph unicode="&#x2006;" horiz-adv-x="323" />
<glyph unicode="&#x2007;" horiz-adv-x="323" />
<glyph unicode="&#x2008;" horiz-adv-x="241" />
<glyph unicode="&#x2009;" horiz-adv-x="389" />
<glyph unicode="&#x200a;" horiz-adv-x="106" />
<glyph unicode="&#x2010;" horiz-adv-x="1038" d="M113 291q12 43 55 70.5t100.5 39t95 15.5t74.5 4q184 0 443 -14q-20 -47 -93 -79t-157 -32q-23 0 -111 6t-145 6q-139 0 -262 -16z" />
<glyph unicode="&#x2011;" horiz-adv-x="1038" d="M113 291q12 43 55 70.5t100.5 39t95 15.5t74.5 4q184 0 443 -14q-20 -47 -93 -79t-157 -32q-23 0 -111 6t-145 6q-139 0 -262 -16z" />
<glyph unicode="&#x2012;" horiz-adv-x="1038" d="M113 291q12 43 55 70.5t100.5 39t95 15.5t74.5 4q184 0 443 -14q-20 -47 -93 -79t-157 -32q-23 0 -111 6t-145 6q-139 0 -262 -16z" />
<glyph unicode="&#x2013;" horiz-adv-x="1546" d="M102 215q16 117 126 155t401 38q211 0 414.5 -18.5t304.5 -20.5q-188 -123 -355 -123q-162 0 -295 8t-176 8q-80 0 -128 -1t-88 -6t-58.5 -8t-64.5 -14.5t-81 -17.5z" />
<glyph unicode="&#x2014;" horiz-adv-x="1878" d="M129 215q16 113 177 153t474 40q215 0 514 -18.5t387 -20.5q-195 -127 -348 -127q-162 0 -406.5 10t-287.5 10q-188 0 -280.5 -9t-229.5 -38z" />
<glyph unicode="&#x2018;" horiz-adv-x="374" d="M301 1411q0 27 24.5 49.5t53.5 22.5q10 -35 76.5 -113t66.5 -113q0 -45 -69 -83q-14 23 -58.5 78t-69 93.5t-24.5 65.5z" />
<glyph unicode="&#x2019;" horiz-adv-x="335" d="M293 1253q0 35 66.5 113t76.5 113q29 0 53.5 -22.5t24.5 -49.5t-24.5 -65.5t-68.5 -94t-59 -78.5q-69 39 -69 84z" />
<glyph unicode="&#x201a;" horiz-adv-x="442" d="M10 -90q0 66 41 138.5t88 72.5q27 0 46.5 -20.5t19.5 -47.5q-16 -18 -30.5 -37.5t-23 -32t-23.5 -39t-18.5 -33.5t-21.5 -46t-22 -45q-56 33 -56 90z" />
<glyph unicode="&#x201c;" horiz-adv-x="628" d="M301 1411q0 27 24.5 49.5t53.5 22.5q10 -35 76.5 -113t66.5 -113q0 -45 -69 -83q-14 23 -58.5 78t-69 93.5t-24.5 65.5zM555 1411q0 27 24.5 49.5t53.5 22.5q10 -35 76.5 -113t66.5 -113q0 -45 -69 -83q-14 23 -58.5 78t-69 93.5t-24.5 65.5z" />
<glyph unicode="&#x201d;" horiz-adv-x="593" d="M295 1257q0 35 66.5 113t76.5 113q29 0 53.5 -22.5t24.5 -49.5t-24.5 -65.5t-68.5 -94t-58 -77.5q-70 40 -70 83zM549 1257q0 35 66.5 113t76.5 113q29 0 53.5 -22.5t24.5 -49.5t-24.5 -65.5t-68.5 -94t-59 -77.5q-69 40 -69 83z" />
<glyph unicode="&#x201e;" horiz-adv-x="667" d="M10 -90q0 66 41 138.5t88 72.5q27 0 46.5 -20.5t19.5 -47.5q-16 -18 -30.5 -37.5t-23 -32t-23.5 -39t-18.5 -33.5t-21.5 -46t-22 -45q-56 33 -56 90zM236 -90q0 66 40.5 138.5t88.5 72.5q27 0 46 -20.5t19 -47.5q-16 -18 -30.5 -37.5t-22.5 -32t-23.5 -39t-18.5 -33.5 t-21.5 -46t-22.5 -45q-55 33 -55 90z" />
<glyph unicode="&#x2022;" horiz-adv-x="557" d="M125 324q0 49 43 98t96 49q51 0 85 -31.5t34 -77.5q0 -43 -52 -87t-108 -44q-41 0 -69.5 26t-28.5 67z" />
<glyph unicode="&#x2026;" horiz-adv-x="1124" d="M57 57q0 35 44 72t85 37q68 0 68 -64q0 -33 -29.5 -77.5t-77.5 -44.5q-45 0 -67.5 23t-22.5 54zM362 57q0 35 44.5 72t85.5 37q68 0 67 -64q0 -33 -29.5 -77.5t-76.5 -44.5q-45 0 -68 23t-23 54zM686 57q0 35 44 72t85 37q68 0 68 -64q0 -33 -30 -77.5t-77 -44.5 q-45 0 -67.5 23t-22.5 54z" />
<glyph unicode="&#x202f;" horiz-adv-x="389" />
<glyph unicode="&#x2039;" horiz-adv-x="663" d="M51 324q104 41 218 140t184 193q29 -35 28 -69q0 -121 -325 -287q123 -88 333 -164q-49 -53 -90 -53q-76 0 -202 87t-146 153z" />
<glyph unicode="&#x203a;" horiz-adv-x="692" d="M137 137q211 76 334 164q-326 166 -326 283q0 37 29 73q70 -94 183.5 -193t217.5 -140q-20 -66 -146 -153t-202 -87q-41 0 -90 53z" />
<glyph unicode="&#x205f;" horiz-adv-x="485" />
<glyph unicode="&#x20ac;" horiz-adv-x="1492" d="M61 313q2 147 234 162l10 68q-96 -4 -207 -27q0 141 242 162q104 322 341 558.5t476 236.5q213 0 213 -189q0 -129 -82 -285.5t-170 -156.5q-51 0 -84 63q78 86 150.5 204t72.5 195.5t-92 77.5q-162 0 -339 -213t-271 -493l152 -14q133 -14 217 -17q-49 -66 -111.5 -80 t-296.5 -18l-14 -70q55 -4 177 -17.5t206 -15.5q-49 -66 -110.5 -79t-289.5 -17q0 -90 9.5 -156.5t34 -133t80 -102.5t139.5 -36q166 0 342 131t260 307l55 -34q-115 -215 -304.5 -358.5t-402.5 -143.5q-111 0 -192.5 42t-128.5 114.5t-70.5 161.5t-25.5 196 q-183 -17 -220 -23z" />
<glyph unicode="&#x2122;" horiz-adv-x="1189" d="M303 1368q2 61 106.5 79.5t307.5 18.5h162q55 0 81.5 -46t26.5 -171q0 -68 -8 -166q27 45 75 152.5t86 164t79 56.5q20 0 57 -22q-102 -260 -102 -498q0 -84 18 -133q-74 0 -98.5 23.5t-24.5 88.5q0 92 37 269q-29 -59 -69 -153.5t-61.5 -128.5t-47.5 -34q-49 0 -49 121 q0 23 4 119t4 141q-125 -289 -173 -367.5t-114 -78.5l127 272q94 201 141 311q-35 2 -114 3q-90 0 -146 -7q-8 -25 -53 -145.5t-71.5 -213.5t-26.5 -163q0 -35 8 -57q-123 0 -123 69q0 45 57.5 209t120.5 299q-41 0 -217 -12z" />
<glyph unicode="&#xe000;" horiz-adv-x="680" d="M0 680h680v-680h-680v680z" />
<glyph unicode="&#xfb01;" horiz-adv-x="1175" d="M-135 -381q0 156 89 465t217 618.5t292 541t295 231.5q86 0 86 -103q0 -170 -170 -395t-389 -373q-29 -68 -29 -69q29 -14 47 -54q55 -162 182 -162q129 0 256 127q49 113 108.5 186t119.5 73q61 0 61 -60q0 -29 -53 -115t-106.5 -193.5t-53.5 -186.5q0 -63 22.5 -87 t73.5 -24q158 0 324 319l33 -30q-70 -182 -184.5 -285.5t-243.5 -103.5q-86 0 -134.5 52t-48.5 132q0 78 35 194q-123 -80 -243 -79q-59 0 -134 24q10 -86 11 -106q0 -172 -45 -341t-122 -278.5t-163 -109.5q-49 0 -91 43t-42 149zM23 -354q0 -92 30 -92q57 0 125 202.5 t68 388.5q0 145 -49 217q-174 -487 -174 -716zM344 750q170 158 281.5 319.5t111.5 224.5q0 14 -16 15q-72 0 -172.5 -154.5t-204.5 -404.5zM979 944q0 47 53 84t113 37q84 0 84 -78q0 -45 -45 -84t-103 -39q-43 0 -72.5 20.5t-29.5 59.5z" />
<glyph unicode="&#xfb02;" horiz-adv-x="1173" d="M-135 -381q0 156 89 465t217 618.5t292 541t295 231.5q86 0 86 -103q0 -170 -170 -395t-389 -373q-2 -6 -12.5 -28.5t-16.5 -38.5q41 -25 47 -70q33 -193 189 -193q94 0 206 64q45 211 174 484.5t261.5 463t195.5 189.5q35 0 61.5 -56.5t26.5 -107.5q0 -156 -167 -461 t-386 -479q-25 -123 -24 -205q0 -141 86 -141q76 0 159.5 97t143.5 230l51 -28q-188 -393 -416 -394q-188 0 -188 248q0 31 6 72q-111 -53 -219 -53q-70 0 -139 30q0 -27 4 -71q0 -172 -45 -341t-122 -278.5t-163 -109.5q-49 0 -91 43t-42 149zM23 -358q0 -88 30 -88 q59 0 125 206.5t66 391.5q0 133 -51 200q-170 -499 -170 -710zM344 750q170 158 281.5 319.5t111.5 224.5q0 14 -16 15q-72 0 -172.5 -154.5t-204.5 -404.5zM899 487q147 160 285.5 394.5t140.5 400.5q-27 0 -105.5 -117.5t-172 -310.5t-148.5 -367z" />
<glyph unicode="&#xfb03;" horiz-adv-x="1851" d="M1336 121q0 82 43 216t116.5 246.5t145.5 112.5q27 0 44 -15t17 -44q0 -27 -52 -112t-105.5 -192.5t-53.5 -185.5q0 -63 22.5 -85.5t69.5 -22.5q162 0 322 313l31 -33q-72 -180 -182.5 -280t-237.5 -100q-86 0 -133 51t-47 131zM1655 942q0 47 52.5 83t111.5 36 q88 0 88 -76q0 -43 -47 -83t-102 -40q-43 0 -73 20.5t-30 59.5zM541 -377q0 156 89 463t217 616.5t292 541t295 231.5q86 0 86 -105q0 -170 -171 -395t-388 -369l-33 -82q43 -18 51 -71q14 -84 23.5 -125t30 -90.5t51 -68.5t75.5 -19q68 0 122 49t118 153l45 -33 q-61 -125 -142 -188t-153 -63q-70 0 -145 55q-2 -166 -49.5 -328t-124 -265t-156.5 -103q-49 0 -91 42.5t-42 153.5zM699 -356q0 -90 32 -90q55 0 122 206.5t67 362.5q0 102 -60 209q-161 -475 -161 -688zM1020 750q174 162 283.5 321.5t109.5 220.5q0 16 -16 17 q-72 0 -172.5 -154.5t-204.5 -404.5zM-135 -377q0 156 89 463t217 616.5t292 541t295 231.5q86 0 86 -105q0 -170 -171 -395t-388 -369l-33 -82q43 -18 51 -71q14 -84 23.5 -125t30 -90.5t51 -68.5t75.5 -19q68 0 122 49t118 153l45 -33q-61 -125 -142 -188t-153 -63 q-70 0 -145 55q-2 -166 -49.5 -328t-124 -265t-156.5 -103q-49 0 -91 42.5t-42 153.5zM23 -356q0 -90 32 -90q55 0 122 206.5t67 362.5q0 102 -60 209q-161 -475 -161 -688zM344 750q174 162 283.5 321.5t109.5 220.5q0 16 -16 17q-72 0 -172.5 -154.5t-204.5 -404.5z" />
<glyph unicode="&#xfb04;" horiz-adv-x="1853" d="M1356 156q0 188 130 510.5t288 565.5t233 243q35 0 59.5 -54.5t26.5 -109.5q0 -94 -70.5 -267.5t-203.5 -368t-279 -308.5q-23 -121 -22 -187v-6q0 -141 88 -141q72 0 152.5 95t144.5 230l49 -26q-90 -186 -198.5 -289.5t-225.5 -103.5q-172 0 -172 217zM1577 494 q164 178 293 431t129 363q-27 0 -104.5 -118.5t-170 -310t-147.5 -365.5zM541 -377q0 156 89 463t217 616.5t292 541t295 231.5q86 0 86 -105q0 -170 -171 -395t-388 -369l-33 -82q43 -18 51 -71q14 -84 23.5 -125t30 -90.5t51 -68.5t75.5 -19q68 0 122 49t118 153l45 -33 q-61 -125 -142 -188t-153 -63q-70 0 -145 55q-2 -166 -49.5 -328t-124 -265t-156.5 -103q-49 0 -91 42.5t-42 153.5zM699 -356q0 -90 32 -90q55 0 122 206.5t67 362.5q0 102 -60 209q-161 -475 -161 -688zM1020 750q174 162 283.5 321.5t109.5 220.5q0 16 -16 17 q-72 0 -172.5 -154.5t-204.5 -404.5zM-135 -377q0 156 89 463t217 616.5t292 541t295 231.5q86 0 86 -105q0 -170 -171 -395t-388 -369l-33 -82q43 -18 51 -71q14 -84 23.5 -125t30 -90.5t51 -68.5t75.5 -19q68 0 122 49t118 153l45 -33q-61 -125 -142 -188t-153 -63 q-70 0 -145 55q-2 -166 -49.5 -328t-124 -265t-156.5 -103q-49 0 -91 42.5t-42 153.5zM23 -356q0 -90 32 -90q55 0 122 206.5t67 362.5q0 102 -60 209q-161 -475 -161 -688zM344 750q174 162 283.5 321.5t109.5 220.5q0 16 -16 17q-72 0 -172.5 -154.5t-204.5 -404.5z" />
</font>
</defs>
</svg>
